<?xml version="1.0" standalone="no"?>
<!DOCTYPE svg PUBLIC "-//W3C//DTD SVG 1.1//EN" "http://www.w3.org/Graphics/SVG/1.1/DTD/svg11.dtd" >
<svg>
<metadata>
Created by FontForge 20110222 at Mon Mar 25 21:14:16 2013
 By www-data
WebHostingHub Glyphs - author WebHostingHub.com - http://webhostinghub.com/glyphs/
</metadata>
<defs>
<font id="WebHostingHub-Glyphs" horiz-adv-x="1024" vert-adv-y="1024" >
  <font-face 
    font-family="WebHostingHub-Glyphs"
    font-weight="400"
    font-stretch="normal"
    units-per-em="1024"
    panose-1="2 0 5 3 0 0 0 0 0 0"
    ascent="819"
    descent="-205"
    x-height="1024"
    cap-height="1024"
    bbox="-2 -2 1050.75 1029"
    underline-thickness="0"
    underline-position="0"
    unicode-range="U+0024-F5DD"
  />
<missing-glyph horiz-adv-x="256" vert-adv-y="90" 
 />
    <glyph glyph-name="dollar" unicode="dollar" vert-adv-y="90" 
d="M831.5 640q-26.5 0 -45 18.5t-18.5 45.5q0 34 -37.5 64t-96.5 47t-122 17t-122 -17t-96.5 -47t-37.5 -64t37.5 -64t96.5 -47t122 -17q104 0 192.5 -34.5t140 -93t51.5 -128.5q0 -94 -91.5 -165.5t-228.5 -86.5v-4q0 -27 -19 -45.5t-45.5 -18.5t-45 18.5t-18.5 45.5v4
q-137 15 -228.5 86.5t-91.5 165.5q0 26 18.5 45t45 19t45.5 -19t19 -45q0 -34 37.5 -64t96.5 -47t122 -17t122 17t96.5 47t37.5 64t-37.5 64t-96.5 47t-122 17q-104 0 -192.5 34t-140 93t-51.5 129q0 94 91.5 165.5t228.5 86.5v4q0 26 18.5 45t45 19t45.5 -19t19 -45v-4
q137 -15 228.5 -86.5t91.5 -165.5q0 -27 -19 -45.5t-45.5 -18.5z" />
    <glyph glyph-name="percent" unicode="percent" vert-adv-y="90" 
d="M832 0q-80 0 -136 56.5t-56 136t56 135.5t136 56t136 -56t56 -135.5t-56 -136t-136 -56.5zM832.5 256q-26.5 0 -45.5 -18.5t-19 -45t19 -45.5t45.5 -19t45 19t18.5 45.5t-18.5 45t-45 18.5zM396 64q-14 -27 -43.5 -45.5t-56.5 -18.5h-129q-27 0 -35.5 19t5.5 45l491 896
q14 27 43.5 45.5t56.5 18.5h129q27 0 35.5 -18.5t-5.5 -45.5zM192 640q-80 0 -136 56.5t-56 136t56 135.5t136 56t136 -56t56 -135.5t-56 -136t-136 -56.5zM191.5 896q-26.5 0 -45 -18.5t-18.5 -45t18.5 -45.5t45.5 -19t45.5 19t18.5 45.5t-19 45t-45.5 18.5z" />
    <glyph glyph-name="asterisk" unicode="asterisk" vert-adv-y="90" 
d="M988 475l-249 -36l185 -190q15 -21 11 -47t-24 -41l-196 -149q-20 -15 -44.5 -11t-39.5 25l-111 233l-111 -233q-15 -21 -39.5 -25t-44.5 11l-196 149q-20 15 -24 41t11 47l185 190l-249 36q-25 8 -37 31t-4 47l79 236q8 25 31.5 36.5t48.5 3.5l197 -99l-39 230
q0 26 19 45t45 19h256q26 0 45 -19t19 -45l-39 -230l197 99q25 8 48.5 -3.5t31.5 -36.5l79 -236q8 -24 -4 -47t-37 -31z" />
    <glyph glyph-name="plus" unicode="plus" vert-adv-y="90" 
d="M960 384h-320v-320q0 -27 -18.5 -45.5t-45.5 -18.5h-128q-27 0 -45.5 19t-18.5 45v320h-320q-27 0 -45.5 19t-18.5 45v128q0 27 18.5 45.5t45.5 18.5h320v320q0 27 18.5 45.5t45.5 18.5h128q27 0 45.5 -18.5t18.5 -45.5v-320h320q27 0 45.5 -18.5t18.5 -45.5v-128
q0 -26 -18.5 -45t-45.5 -19z" />
    <glyph glyph-name="yen" unicode="yen" vert-adv-y="90" 
d="M879 919l-303 -303v-104h128q27 0 45.5 -19t18.5 -45.5t-18.5 -45t-45.5 -18.5h-128v-64h128q27 0 45.5 -19t18.5 -45.5t-18.5 -45t-45.5 -18.5h-128v-128q0 -27 -18.5 -45.5t-45 -18.5t-45 18.5t-18.5 45.5v128h-128q-27 0 -45.5 18.5t-18.5 45t18.5 45.5t45.5 19h128
v64h-128q-27 0 -45.5 18.5t-18.5 45t18.5 45.5t45.5 19h128v104l-303 303q-18 18 -18 43.5t18 43.5t43.5 18t43.5 -18l279 -279l280 279q18 18 43.5 18t43.5 -18t18 -43.5t-18 -43.5z" />
    <glyph glyph-name="copyright" unicode="copyright" vert-adv-y="90" 
d="M512 0q-139 0 -257 68.5t-186.5 186.5t-68.5 257t68.5 257t186.5 186.5t257 68.5t257 -68.5t186.5 -186.5t68.5 -257t-68.5 -257t-186.5 -186.5t-257 -68.5zM512 896q-104 0 -192.5 -51.5t-140 -140t-51.5 -192.5t51.5 -192.5t140 -140t192.5 -51.5t192.5 51.5t140 140
t51.5 192.5t-51.5 192.5t-140 140t-192.5 51.5zM734 592q-6 -21 -23 -34.5t-39 -13.5q-8 0 -16 3t-13 6t-11.5 10t-9 10t-7 10.5t-5.5 8.5q-39 48 -98 48q-53 0 -90.5 -37.5t-37.5 -90.5t37.5 -90.5t90.5 -37.5q59 0 98 48q2 2 9.5 13.5t12.5 17t16 11.5t24 6q22 0 39 -13.5
t23 -34.5q1 -4 2 -11t-3.5 -23.5t-18.5 -29.5q-37 -50 -90 -81t-112 -31q-106 0 -181 75t-75 181t75 181t181 75q61 0 114.5 -31.5t90.5 -83.5q12 -11 16 -26.5t2 -25.5z" />
    <glyph glyph-name="paragraph" unicode="pilcrow" vert-adv-y="90" 
d="M960 896h-64v-832q0 -26 -19 -45t-45.5 -19t-45 19t-18.5 45v832h-256v-832q0 -26 -19 -45t-45.5 -19t-45 19t-18.5 45v320h-64q-87 0 -160.5 43t-116.5 116.5t-43 160.5t43 160.5t116.5 116.5t160.5 43h640q26 0 45 -18.5t19 -45t-18.5 -45.5t-45.5 -19z" />
    <glyph glyph-name="multiply" unicode="multiply" vert-adv-y="90" 
d="M701 512l303 -304q20 -20 20 -47.5t-20 -46.5l-94 -94q-19 -20 -47 -20t-47 20l-304 303l-304 -303q-19 -20 -47 -20t-47 20l-94 94q-20 19 -20 46.5t20 47.5l303 304l-303 303q-20 20 -20 47.5t20 47.5l94 94q19 19 47 19t47 -19l304 -304l304 304q19 19 47 19t47 -19
l94 -94q20 -20 20 -47.5t-20 -47.5z" />
    <glyph glyph-name="divide" unicode="divide" vert-adv-y="90" 
d="M960 384h-896q-27 0 -45.5 19t-18.5 45v128q0 27 19 45.5t45 18.5h896q27 0 45.5 -18.5t18.5 -45.5v-128q0 -26 -18.5 -45t-45.5 -19zM576 768h-128q-27 0 -45.5 19t-18.5 45v128q0 27 19 45.5t45 18.5h128q27 0 45.5 -18.5t18.5 -45.5v-128q0 -26 -18.5 -45t-45.5 -19z
M448 256h128q27 0 45.5 -18.5t18.5 -45.5v-128q0 -27 -19 -45.5t-45 -18.5h-128q-27 0 -45.5 19t-18.5 45v128q0 27 19 45.5t45 18.5z" />
    <glyph glyph-name="uni01C0" unicode="pipe" vert-adv-y="90" 
d="M768 0q-51 0 -100 21t-94.5 60.5t-81 79.5t-76.5 95q-17 23 -42 49.5t-65 61.5t-88 58t-93 23h-96q-13 0 -22.5 9.5t-9.5 22.5t9.5 22.5t22.5 9.5h96q37 0 55.5 -0.5t52.5 -2.5t54.5 -7t50 -14t51 -22.5t45 -34t43.5 -47.5q25 -34 79.5 -81t80.5 -47q64 0 64 64v128
q0 26 18.5 45t45.5 19h192q26 0 45 -19t19 -45v-192q0 -106 -75 -181t-181 -75zM896 768q0 -36 9 -83q1 -5 18 -40.5t25 -68.5h-58q-9 42 -26 64q-23 24 -27.5 47.5t-4.5 80.5q0 80 37.5 136t90.5 56q-38 -15 -51 -64t-13 -128zM704 819q0 -38 9 -89q50 -56 54 -154h-63
q0 64 -9 76q-55 62 -55 167q0 85 37.5 145t90.5 60q15 0 32 -7q-42 -18 -69 -72.5t-27 -125.5z" />
    <glyph glyph-name="ring" unicode="ring" vert-adv-y="90" 
d="M960 448q0 -91 -35.5 -174t-95.5 -143t-143 -95.5t-174 -35.5t-174 35.5t-143 95.5t-95.5 143t-35.5 174q0 163 103.5 286.5t260.5 153.5l-108 72l128 64h128l128 -64l-108 -72q157 -30 260.5 -153.5t103.5 -286.5zM512 768q-87 0 -160.5 -43t-116.5 -116.5t-43 -160.5
t43 -160.5t116.5 -116.5t160.5 -43t160.5 43t116.5 116.5t43 160.5t-43 160.5t-116.5 116.5t-160.5 43z" />
    <glyph glyph-name="dagger" unicode="dagger" vert-adv-y="90" 
d="M1014 61l-51 -51q-10 -10 -24.5 -10t-25.5 10l-328 329l-77 -78q-6 -5 -14 -5t-13 5l-28 27q-5 6 -5 14t5 14l29 29l-226 199q-75 75 -161 229.5t-95 250.5q11 -13 27 -29t37.5 -36.5t31.5 -30.5q73 -73 154 -123.5t99 -32.5l0.5 0.5t0.5 1.5l281 -281l13 14q6 5 14 5
t14 -5l27 -28q6 -5 6 -13t-6 -14l-13 -13l328 -328q10 -11 10 -25.5t-10 -24.5z" />
    <glyph glyph-name="uni2040" unicode="business" vert-adv-y="90" 
d="M702 963l-124 -143l121 -570q6 -16 8 -22.5t0.5 -14.5t-8.5 -15l-156 -187q-10 -11 -25.5 -11t-26.5 11l-155 187q-10 13 -9.5 21.5t9.5 30.5l121 571l-123 142q-13 12 -6.5 36.5t28.5 24.5h325q22 0 27.5 -24.5t-6.5 -36.5z" />
    <glyph glyph-name="Euro" unicode="euro" vert-adv-y="90" 
d="M896.5 640q-26.5 0 -45.5 18.5t-19 45.5q-21 83 -94 137.5t-162 54.5q-88 0 -157 -54t-91 -138h184q27 0 45.5 -19t18.5 -45.5t-18.5 -45t-45.5 -18.5h-192v-128h192q27 0 45.5 -19t18.5 -45.5t-18.5 -45t-45.5 -18.5h-184q22 -84 91 -138t157 -54q89 0 162 54.5
t94 137.5q0 26 19 45t45.5 19t45 -19t18.5 -45q0 -23 -15 -41q-35 -122 -137 -200.5t-232 -78.5q-142 0 -248.5 91.5t-129.5 228.5h-70q-27 0 -45.5 18.5t-18.5 45t18.5 45.5t45.5 19h64v128h-64q-27 0 -45.5 18.5t-18.5 45t18.5 45.5t45.5 19h70q23 137 129.5 228.5
t248.5 91.5q130 0 232 -78.5t137 -200.5q15 -18 15 -41q0 -27 -18.5 -45.5t-45 -18.5z" />
    <glyph glyph-name="uni21B8" unicode="home" vert-adv-y="90" 
d="M1004.5 468.5q-19.5 -19.5 -47 -19.5t-46.5 19l-15 15v-419q0 -26 -18.5 -45t-45.5 -19h-192v288q0 13 -9.5 22.5t-22.5 9.5h-192q-13 0 -22.5 -9.5t-9.5 -22.5v-288h-192q-27 0 -45.5 19t-18.5 45v419l-15 -15q-19 -19 -46.5 -19t-47 19.5t-19.5 47t19 46.5l444 444
q20 20 49 19q29 1 49 -19l444 -444q19 -19 19 -46.5t-19.5 -47z" />
    <glyph glyph-name="uni21EA" unicode="capslock" vert-adv-y="90" 
d="M933 511h-166v-191q0 -27 -18.5 -45.5t-44.5 -18.5h-384q-26 0 -45 18.5t-19 45.5v191h-164q-12 0 -20 13t-7 31t13 30l389 420q18 19 45 19t46 -19l388 -420q12 -12 13.5 -30t-6.5 -31t-20 -13zM320 193h384q26 0 44.5 -19t18.5 -45v-65q0 -26 -18.5 -45t-44.5 -19h-384
q-26 0 -45 18.5t-19 45.5v65q0 26 19 45t45 19z" />
    <glyph glyph-name="gradient" unicode="gradient" vert-adv-y="90" 
d="M896 0h-768q-53 0 -90.5 37.5t-37.5 90.5v768q0 53 37.5 90.5t90.5 37.5h768q53 0 90.5 -37.5t37.5 -90.5v-768q0 -53 -37.5 -90.5t-90.5 -37.5zM704 256h-64v64h64v64h-64v64h64v64h-64v64h64v64h-64v64h64v64h-64v64h64v64h-64v-64h-64v64h-64v-64h-64v64h-288
q-13 0 -22.5 -9.5t-9.5 -22.5v-704q0 -13 9.5 -22.5t22.5 -9.5h224v64h64v-64h64v64h64v-64h64v64h64v64zM576 192v64h64v-64h-64zM576 384h64v-64h-64v64zM576 512h64v-64h-64v64zM576 640h64v-64h-64v64zM576 768h64v-64h-64v64zM512 768v64h64v-64h-64zM384 768v64h64
v-64h-64zM512 256v-64h-64v64h64zM512 320h64v-64h-64v64zM512 448h64v-64h-64v64zM512 576h64v-64h-64v64zM512 704h64v-64h-64v64zM448 704v64h64v-64h-64zM512 576h-64v64h64v-64zM512 448h-64v64h64v-64zM512 320h-64v64h64v-64zM384 256v64h64v-64h-64zM384 384v64h64
v-64h-64zM384 512v64h64v-64h-64zM384 640v64h64v-64h-64z" />
    <glyph glyph-name="minus" unicode="minus" vert-adv-y="90" 
d="M1024 576v-128q0 -27 -19 -45.5t-45 -18.5h-896q-26 0 -45 18.5t-19 45.5v128q0 26 18.5 45t45.5 19h896q26 0 45 -19t19 -45z" />
    <glyph glyph-name="infinity" unicode="infinity" vert-adv-y="90" 
d="M768 256q-97 0 -256 153q-159 -153 -256 -153q-106 0 -181 75t-75 181t75 181t181 75q98 0 256 -153q159 153 256 153q106 0 181 -75t75 -181t-75 -181t-181 -75zM256 640q-57 0 -92.5 -37t-35.5 -91t35.5 -91t92.5 -37q22 0 46.5 13t44 32t35.5 38t25 32l9 13
q-3 5 -9 13.5t-24.5 31t-36.5 39t-43 30.5t-47 14zM768 640q-22 0 -46.5 -13t-44 -32t-35.5 -38t-25 -32l-9 -13q3 -5 9 -14t24.5 -31t36.5 -38.5t43 -30.5t47 -14q57 0 92.5 37t35.5 91t-35.5 91t-92.5 37z" />
    <glyph glyph-name="intersection" unicode="intersection" vert-adv-y="90" 
d="M960 640h-384v-64h256h0.5h1.5q34 -1 43 -10l137 -94q10 -10 10 -24t-10 -24l-137 -94q-10 -10 -45 -10h-256v-256q0 -26 -18.5 -45t-45.5 -19t-45.5 19t-18.5 45v256h-384q-26 0 -45 19t-19 45v128q0 26 19 45t45 19h384v64h-256q-35 0 -45 10l-137 94q-10 10 -10 24
t10 24l137 94q9 10 43 10h1.5h0.5h256v64q0 26 18.5 45t45.5 19t45.5 -19t18.5 -45v-64h384q26 0 45 -18.5t19 -45.5v-128q0 -27 -19 -45.5t-45 -18.5z" />
    <glyph glyph-name="uni22B7" unicode="image" vert-adv-y="90" 
d="M0 0v1025h1024v-1025h-1024zM960 961h-896v-769h896v769zM256 897q53 0 90.5 -37.5t37.5 -90.5t-37.5 -90.5t-90.5 -37.5t-90.5 37t-37.5 90v1q0 53 37.5 90.5t90.5 37.5zM367 495l238 -239h-477v93l146 146q18 18 46.5 18t46.5 -18zM690 687q18 19 46.5 19t46.5 -19
l113 -113v-318h-204q0 1 -1.5 3.5t-2.5 4.5l-211 210z" />
    <glyph glyph-name="uni22D4" unicode="fork" vert-adv-y="90" 
d="M990.5 33.5q-25.5 -25.5 -58.5 -32t-70.5 9.5t-72.5 54l-290 340q-64 -30 -136.5 -17.5t-125.5 65.5l-221 222q-16 15 -16 37.5t16 38.5t38.5 16t37.5 -16l234 -234q38 9 73 30l-255 255q-16 16 -16 38.5t16 38.5t38 16t38 -16l256 -255q21 34 30 72l-234 234
q-16 16 -16 38.5t15.5 38t38 15.5t38.5 -16l223 -220q52 -53 64.5 -126t-17.5 -137l340 -288q38 -34 54.5 -72t10 -71t-32 -58.5z" />
    <glyph glyph-name="uni2407" unicode="bell" vert-adv-y="90" 
d="M960 64h-338q-17 -29 -46 -46.5t-64 -17.5t-64 17.5t-46 46.5h-338q-27 0 -45.5 19t-18.5 45v64q53 0 90.5 75t37.5 181v128q0 142 91.5 248.5t228.5 129.5v6q0 27 19 45.5t45 18.5t45 -18.5t19 -45.5v-6q137 -23 228.5 -129.5t91.5 -248.5v-128q0 -106 37.5 -181
t90.5 -75v-64q0 -26 -18.5 -45t-45.5 -19z" />
    <glyph glyph-name="uni2441" unicode="chair" vert-adv-y="90" 
d="M928 64q-40 0 -68 28t-28 68v320q0 42 45 101t83 59q19 0 32.5 -17t19.5 -44t9 -51.5t3 -47.5v-320q0 -40 -28 -68t-68 -28zM704 512h-384q-27 0 -45.5 19t-18.5 45l-64 256q0 27 18.5 45.5t45.5 18.5h512q26 0 45 -19t19 -45l-64 -256q0 -26 -19 -45t-45 -19zM192 160
q0 -40 -28 -68t-68 -28t-68 28t-28 68v320q0 23 2.5 47.5t9 51.5t20 44t32.5 17q38 0 83 -59t45 -101v-320zM320 448h384q26 0 45 -18.5t19 -45t-19 -45.5t-45 -19h-384q-27 0 -45.5 19t-18.5 45.5t18.5 45t45.5 18.5zM320 256h384q26 0 45 -18.5t19 -45.5v-64
q0 -26 -19 -45t-45 -19h-384q-27 0 -45.5 19t-18.5 45v64q0 27 18.5 45.5t45.5 18.5z" />
    <glyph glyph-name="uni25AD" unicode="rectangle" vert-adv-y="90" 
d="M0 0v1024h1024v-1024h-1024zM960 960h-896v-896h896v896z" />
    <glyph glyph-name="uni25B3" unicode="triangle" vert-adv-y="90" 
d="M992 0h-32v32q0 13 -9.5 22.5t-22.5 9.5t-22.5 -9.5t-9.5 -22.5v-32h-64v96q0 13 -9.5 22.5t-22.5 9.5t-22.5 -9.5t-9.5 -22.5v-96h-64v32q0 13 -9.5 22.5t-22.5 9.5t-22.5 -9.5t-9.5 -22.5v-32h-64v96q0 13 -9.5 22.5t-22.5 9.5t-22.5 -9.5t-9.5 -22.5v-96h-64v32
q0 13 -9.5 22.5t-22.5 9.5t-22.5 -9.5t-9.5 -22.5v-32h-64v96q0 13 -9.5 22.5t-22.5 9.5t-22.5 -9.5t-9.5 -22.5v-96h-64v32q0 13 -9.5 22.5t-22.5 9.5t-22.5 -9.5t-9.5 -22.5v-32h-96q-13 0 -22.5 9.5t-9.5 22.5l992 992q13 0 22.5 -9.5t9.5 -22.5v-960q0 -13 -9.5 -22.5
t-22.5 -9.5zM832 544q0 13 -9.5 22.5t-22.5 9.5l-352 -352q0 -13 9.5 -22.5t22.5 -9.5h320q13 0 22.5 9.5t9.5 22.5v320z" />
    <glyph glyph-name="uni262F" unicode="yinyang" vert-adv-y="90" 
d="M512 0q-104 0 -199 40.5t-163.5 109t-109 163.5t-40.5 199.5t40.5 199t109 163t163.5 109.5t199 41t199 -41t163.5 -109.5t109 -163t40.5 -199t-40.5 -199.5t-109 -163.5t-163.5 -109t-199 -40.5zM512 768q-26 0 -45 -18.5t-19 -45t18.5 -45.5t45.5 -19t45.5 19
t18.5 45.5t-19 45t-45 18.5zM512 512q-80 0 -136 56.5t-56 136t56 135.5t136 56q-104 0 -192.5 -51t-140 -139.5t-51.5 -193t51.5 -193t140 -140t192.5 -51.5q80 0 136 56.5t56 136t-56 135.5t-136 56zM512.5 256q-26.5 0 -45.5 19t-19 45.5t19 45t45.5 18.5t45 -18.5
t18.5 -45t-18.5 -45.5t-45 -19z" />
    <glyph glyph-name="smileface" unicode="smile" vert-adv-y="90" 
d="M512 0q-104 0 -199 40.5t-163.5 109t-109 163.5t-40.5 199t40.5 199t109 163.5t163.5 109t199 40.5t199 -40.5t163.5 -109t109 -163.5t40.5 -199t-40.5 -199t-109 -163.5t-163.5 -109t-199 -40.5zM288 768q-40 0 -68 -37.5t-28 -90.5t28 -90.5t68 -37.5t68 37.5t28 90.5
t-28 90.5t-68 37.5zM736 768q-40 0 -68 -37.5t-28 -90.5t28 -90.5t68 -37.5t68 37.5t28 90.5t-28 90.5t-68 37.5zM800 384h-576q-13 0 -22.5 -9.5t-9.5 -22.5q40 -113 117.5 -168.5t201.5 -55.5t202.5 55.5t118.5 168.5q0 13 -9.5 22.5t-22.5 9.5zM511 192q-166 0 -223 114
q0 6 5.5 10t13.5 4h410q8 0 13.5 -4t5.5 -10q-57 -114 -225 -114z" />
    <glyph glyph-name="sun" unicode="compass" vert-adv-y="90" 
d="M512 0q-104 0 -199 40.5t-163.5 109t-109 163.5t-40.5 199t40.5 199t109 163.5t163.5 109t199 40.5t199 -40.5t163.5 -109t109 -163.5t40.5 -199t-40.5 -199t-109 -163.5t-163.5 -109t-199 -40.5zM512 896q-104 0 -192.5 -51t-140 -139.5t-51.5 -193t51.5 -193t140 -140
t192.5 -51.5t192.5 51.5t140 140t51.5 193t-51.5 193t-140 139.5t-192.5 51zM512 448q-35 0 -54 30l-234 130l288 -32q35 0 54 -30l234 -130z" />
    <glyph glyph-name="uni2713" unicode="checkmark" vert-adv-y="90" 
d="M1006 699l-619 -618q-18 -18 -53 -17q-32 1 -49 17l-267 267q-18 18 -18 44t18 44l89 89q18 18 44 18t44 -18l141 -141l493 492q18 18 44 18t44 -18l89 -88q18 -19 18 -44.5t-18 -44.5z" />
    <glyph glyph-name="uniE000" unicode="wallet" vert-adv-y="90" 
d="M896 64h-576q-53 0 -90.5 37.5t-37.5 90.5h-64q-53 0 -90.5 37.5t-37.5 90.5v512q0 53 37.5 90t90.5 37h768q53 0 90.5 -37t37.5 -90v-640q0 -53 -37.5 -90.5t-90.5 -37.5zM416 320q96 0 96 96t-96 96t-96 -96t96 -96zM864 832h-647q-37 0 -63 -25t-26 -61v-341
q0 -29 18 -51.5t46 -29.5v316q0 53 37.5 90.5t90.5 37.5h544q13 0 22.5 9t9.5 22.5t-9.5 23t-22.5 9.5z" />
    <glyph glyph-name="uniF585" unicode="opensource" vert-adv-y="90" 
d="M692 33l-109 301q54 21 87.5 69.5t33.5 108.5q0 80 -56 136t-136 56t-136 -56t-56 -136q0 -60 33.5 -108.5t87.5 -69.5l-109 -301q-147 56 -239.5 186.5t-92.5 292.5q0 104 40.5 199t109 163.5t163.5 109t199 40.5t199 -40.5t163.5 -109t109 -163.5t40.5 -199
q0 -162 -92.5 -292.5t-239.5 -186.5z" />
    <glyph glyph-name="uniF586" unicode="redaxscript" vert-adv-y="90" 
d="M640 0v64h32q32 33 32 64q0 19 -25.5 54t-69 86.5t-65.5 83.5q-28 40 -67 76q-34 -36 -61 -76q-5 -7 -24.5 -35t-33 -48t-26 -43.5t-12.5 -33.5q0 -16 8 -32t16 -24l8 -8h32v-64h-384v64h32q9 7 25 20t56.5 56t72.5 91q24 36 49.5 90.5t39.5 90.5l13 36q-5 19 -14.5 49
t-36.5 97t-51 103q-20 30 -43.5 55t-42 39t-35 24t-24.5 13.5t-9 3.5h-32v64h384v-64h-32q-17 -38 0 -64q7 -11 45 -59.5t51 -68.5q5 -7 10 -15t11 -17t10 -14q19 25 33 46q21 30 57 75t53.5 71.5t17.5 45.5q0 14 -8 30t-16 25l-8 9h-32v64h384v-64h-32q-9 -7 -25 -20
t-56.5 -56t-72.5 -91q-24 -36 -57.5 -106.5t-55.5 -122.5l-21 -52q144 -200 198 -281q67 -101 151 -165l3 -2h32v-64h-384z" />
    <glyph glyph-name="uniF587" unicode="mahara" vert-adv-y="90" 
d="M832 256q0 -70 -43 -128.5t-116.5 -93t-160.5 -34.5t-160.5 34.5t-116.5 93t-43 128.5q0 81 70.5 188.5t155.5 161.5q-43 26 -70.5 67t-27.5 95q0 35 25.5 81.5t58.5 84t64.5 64t43.5 26.5t43.5 -26.5t64.5 -64t58.5 -84t25.5 -81.5q0 -54 -27.5 -95t-70.5 -67
q85 -54 155.5 -161.5t70.5 -188.5zM448 512q-3 -2 -7 -6t-15 -17t-19.5 -27t-15.5 -35t-7 -43q0 -31 27.5 -47.5t68.5 -16.5q17 0 24.5 12.5t7.5 51.5q0 29 -14 60.5t-29 49.5t-21 18zM528 768q-9 0 -12.5 -8.5t-3.5 -34.5q0 -19 7 -40t14.5 -33t10.5 -12q4 4 9 11t14 29.5
t9 44.5q0 21 -13.5 32t-34.5 11z" />
    <glyph glyph-name="uniF588" unicode="forkcms" vert-adv-y="90" 
d="M896 707v-67h32q13 0 22.5 -9.5t9.5 -22.5t-9.5 -22.5t-22.5 -9.5h-32v-480q0 -13 -9.5 -22.5t-22.5 -9.5t-22.5 9.5t-9.5 22.5v480h-64q-25 0 -128 78v-366q0 -93 -84.5 -158.5t-204 -65.5t-203.5 65.5t-84 158.5v1.5v1.5q-20 6 -38 24q-17 17 -23.5 36t2.5 28t27.5 2.5
t36.5 -24.5q15 -15 22 -32q10 19 31 32q10 6 14.5 9t12 7.5t12 6t10 3t9 0.5t6.5 -4q9 -9 3 -28t-24 -36q-6 -6 -19 -20.5t-18 -20.5q34 -18 64 -18q46 0 81.5 37t43.5 93l-182 142q-7 7 -7 17t7 17l185 142v256h64v-64h64v64h64v-64h64v64h64v-225q130 -95 156 -95h36v67
q-55 12 -91.5 56t-36.5 101v64q0 14 9.5 23t22.5 9t22.5 -9t9.5 -23v-64q0 -31 18 -55.5t46 -34.5v154q0 14 9.5 23t22.5 9t22.5 -9t9.5 -23v-154q28 10 46 34.5t18 55.5v64q0 14 9.5 23t22.5 9t22.5 -9t9.5 -23v-64q0 -57 -36.5 -101t-91.5 -56zM320 616l-96 -72l96 -72
v144z" />
    <glyph glyph-name="uniF589" unicode="pimcore" vert-adv-y="90" 
d="M832 448q-57 0 -160 39t-168 86q-6 -6 -17 -18q-37 -38 -57 -58t-55 -53t-60.5 -50.5t-58.5 -37t-64.5 -28t-63.5 -8.5q-56 0 -104 36q-24 76 -24 156q0 158 89 288q31 -32 103 -32q28 0 59 19t94.5 62t134.5 79q8 4 32 17t37.5 19.5t35 15.5t41.5 14t39 7
q101 -32 184.5 -103.5t129 -157t45.5 -164.5q0 -128 -192 -128zM800 768q-71 0 -157 -65q24 1 125 1q128 0 128 32t-96 32zM224 832q-23 0 -43 15t-22 35q70 67 161 104.5t192 37.5q33 0 74 -6q-83 -16 -170 -58q-48 -23 -89.5 -56t-65 -52.5t-37.5 -19.5zM504 183
q49 24 144 81t162.5 88.5t117.5 31.5q49 0 72 -26q-6 -20 -15 -42q-89 -13 -162.5 -63t-118.5 -125q49 0 108 22.5t111 56.5q-71 -96 -179 -151.5t-232 -55.5q-131 0 -243.5 61.5t-182.5 167.5q61 27 138 27q69 0 151.5 -21t128.5 -52z" />
    <glyph glyph-name="uniF58A" unicode="bigace" vert-adv-y="90" 
d="M512 0q-104 0 -199 40.5t-163.5 109t-109 163.5t-40.5 199t40.5 199t109 163.5t163.5 109t199 40.5t199 -40.5t163.5 -109t109 -163.5t40.5 -199t-40.5 -199t-109 -163.5t-163.5 -109t-199 -40.5zM512 896q0 -17 -16.5 -36.5t-43.5 -38.5t-61.5 -43.5t-70.5 -49.5
t-70.5 -59t-61.5 -70t-43.5 -83.5t-16.5 -99.5q0 -76 54 -118t138 -42q39 0 69 16.5t59 47.5q0 -32 -1 -49.5t-6.5 -45t-19.5 -51t-37 -46.5h256q-23 23 -37 46.5t-19.5 51t-6.5 45t-1 49.5q29 -31 59 -47.5t69 -16.5q83 0 137.5 42t54.5 118q0 59 -21 112t-55 92.5
t-75 74.5t-82 62.5t-75 51t-55 46t-21 41.5z" />
    <glyph glyph-name="uniF58B" unicode="aef" vert-adv-y="90" 
d="M312 341q82 36 301.5 101t314.5 102q21 9 45 17t37 12l14 3q-41 -41 -154.5 -125.5t-222.5 -163t-207 -161t-120 -126.5q0 43 51.5 115t116.5 136.5t131 116.5q-88 -28 -221.5 -57t-170.5 -41q-23 -14 -35 -14q5 10 15 21q49 82 49 235q0 9 -7 32q-173 -114 -249 -160
q0 245 35.5 412t93.5 228q-65 -231 -65 -522q143 98 268 150t180 52v0q0 -79 -60.5 -180.5t-139.5 -182.5z" />
    <glyph glyph-name="uniF58C" unicode="punbb" vert-adv-y="90" 
d="M995 443l-414 -414q-29 -29 -69 -29t-69 29l-414 414q-29 29 -29 69t29 69l414 414q29 29 69 29t69 -29l414 -414q29 -29 29 -69t-29 -69zM900 582l-71 71q-29 29 -70 29t-71 -29l-105 -106q-29 -29 -29 -70t29 -71l70 -70q8 -7 4.5 -20.5t-14.5 -25.5l-102 -102
q-12 -11 -25.5 -14t-20.5 4l-176 176q334 333 334 334q29 29 29 70t-29 71l-70 70q-29 29 -70.5 29t-70.5 -29l-317 -317q-29 -29 -29 -70t29 -70l71 -71l246 -246q29 -29 70.5 -29t70.5 29l123 123q29 29 29 70.5t-29 70.5l-70 70q-8 7 -4.5 20.5t14.5 25.5l85 84
q11 12 24.5 15t21.5 -4l138 -138q17 28 13 62t-28 58zM248 424l-68 68l-2 2q-7 8 -4 21.5t14 24.5l296 296q12 11 25.5 14.5t20.5 -4.5l70 -70q8 -7 5 -20.5t-15 -25.5l-296 -295q-12 -12 -25 -15t-21 4z" />
    <glyph glyph-name="uniF58D" unicode="phorum" vert-adv-y="90" 
d="M512 129v-43q0 -37 -31 -64t-74 -21q-55 7 -110 26q-51 19 -78 46t-27 75v115q-61 62 -94.5 142.5t-33.5 170.5q0 91 35.5 174t95.5 143t143 95.5t174 35.5t174 -35.5t143 -95.5t95 -143t35 -174t-35 -173.5t-95 -142.5t-143 -95.5t-174 -35.5zM512 896q-69 0 -165 -26.5
t-181 -71.5q-20 -11 -11 -85q8 -67 26 -73q4 -1 7 1q9 3 32 15.5t36 15.5v-511q0 -19 19 -45t44 -35q33 -12 66 -16q26 -4 44.5 12.5t18.5 38.5v151q55 -10 96 -10q87 0 168.5 42t132.5 117t51 160q0 67 -24.5 124.5t-71.5 101.5t-121 69t-167 25zM534 448q-29 0 -86 8v242
q46 6 70 6q89 0 137.5 -36t48.5 -92q0 -52 -52.5 -90t-117.5 -38z" />
    <glyph glyph-name="uniF58E" unicode="fluxbb" vert-adv-y="90" 
d="M800 64h-64q-13 0 -22.5 9.5t-9.5 22.5v64q0 13 9.5 22.5t22.5 9.5h32v640h-32q-13 0 -22.5 9.5t-9.5 22.5v64q0 13 9.5 22.5t22.5 9.5h64q40 0 68 -28t28 -68v-704q0 -40 -28 -68t-68 -28zM544 0h-64q-13 0 -22.5 9.5t-9.5 22.5v960q0 13 9.5 22.5t22.5 9.5h64
q13 0 22.5 -9.5t9.5 -22.5v-960q0 -13 -9.5 -22.5t-22.5 -9.5zM288 64h-64q-40 0 -68 28t-28 68v704q0 40 28 68t68 28h64q13 0 22.5 -9.5t9.5 -22.5v-64q0 -13 -9.5 -22.5t-22.5 -9.5h-32v-640h32q13 0 22.5 -9.5t9.5 -22.5v-64q0 -13 -9.5 -22.5t-22.5 -9.5z" />
    <glyph glyph-name="uniF58F" unicode="minibb" vert-adv-y="90" 
d="M928 576q-15 0 -32 4v-164q0 -13 -9.5 -22.5t-22.5 -9.5h-192q-13 0 -22.5 9.5t-9.5 22.5v164q-16 -4 -32 -4q-40 0 -68 19t-28 45.5t28 45t68 18.5t68 -18.5t28 -45.5v-160q0 -13 9.5 -22.5t22.5 -9.5h64q13 0 22.5 9.5t9.5 22.5v160q0 27 28 45.5t68 18.5t68 -18.5
t28 -45t-28 -45.5t-68 -19zM768 768q-53 0 -90.5 37.5t-37.5 90.5t37.5 90.5t90.5 37.5t90.5 -37.5t37.5 -90.5t-37.5 -90.5t-90.5 -37.5zM416 384q-40 0 -68 18.5t-28 45.5v160q0 13 -9.5 22.5t-22.5 9.5h-64q-13 0 -22.5 -9.5t-9.5 -22.5v-160q0 -27 -28 -45.5t-68 -18.5
t-68 18.5t-28 45.5t28 45.5t68 18.5q15 0 32 -4v164q0 13 9.5 22.5t22.5 9.5h192q13 0 22.5 -9.5t9.5 -22.5v-164q17 4 32 4q40 0 68 -18.5t28 -45.5t-28 -45.5t-68 -18.5zM256 768q-53 0 -90.5 37.5t-37.5 90.5t37.5 90.5t90.5 37.5t90.5 -37.5t37.5 -90.5t-37.5 -90.5
t-90.5 -37.5zM512 128q195 0 304.5 35.5t135.5 92.5q8 -10 8 -24q0 -25 -15.5 -54.5t-50.5 -61.5t-85.5 -57.5t-127.5 -42t-168.5 -16.5t-169 16.5t-128 42t-85.5 57.5t-50.5 61.5t-15.5 54.5q0 14 8 24q26 -57 135.5 -92.5t304.5 -35.5z" />
    <glyph glyph-name="uniF590" unicode="&#x7a;enphoto" vert-adv-y="90" 
d="M832 256h-64v-160q0 -13 -9.5 -22.5t-22.5 -9.5h-64q-13 0 -22.5 9.5t-9.5 22.5v512q0 13 9.5 22.5t22.5 9.5h160q80 0 136 -56t56 -135.5t-56 -136t-136 -56.5zM832 512h-64v-128h64q27 0 45.5 19t18.5 45.5t-18.5 45t-45.5 18.5zM576 928v2v-2zM84 128h460
q13 0 22.5 -9.5t9.5 -22.5t-9.5 -22.5t-22.5 -9.5h-511q-12 -2 -22.5 8.5t-10.5 24.5q-1 15 6 28l486 771h-460q-13 0 -22.5 9.5t-9.5 22.5t9.5 22.5t22.5 9.5h511q12 2 22.5 -8.5t10.5 -23.5q-1 -21 -6 -29zM576 930z" />
    <glyph glyph-name="uniF591" unicode="fourimages" vert-adv-y="90" 
d="M896 0h-64v192h192v-64q0 -53 -37.5 -90.5t-90.5 -37.5zM832 1024h64q53 0 90.5 -37.5t37.5 -90.5v-512h-192v640zM260 401q-4 -7 -5 -19.5t0 -20.5l1 -9v-128q0 -13 9.5 -22.5t22.5 -9.5h352v-192h-512q-53 0 -90.5 37.5t-37.5 90.5v768q0 53 37.5 90.5t90.5 37.5h479z
M466 384l174 311v-311h-174z" />
    <glyph glyph-name="uniF592" unicode="plogger" vert-adv-y="90" 
d="M1024 320q0 -44 -13.5 -79.5t-33.5 -55.5t-43 -33.5t-40.5 -18.5t-29.5 -5q-42 0 -83 16t-69 32t-40 16q-18 0 -25 -7.5t-7 -24.5q0 -14 8 -38t16 -41l8 -17q-40 0 -68 28t-28 68t28 68t68 28q32 0 57 -10t39 -22t39 -22t57 -10q30 0 63 35t33 93q0 62 -37 101
q-57 -37 -123 -37q-93 0 -158.5 65.5t-65.5 158.5q0 55 25.5 103t68.5 79q-6 46 -32.5 76t-61.5 30v64q54 0 96.5 -39.5t56.5 -100.5q38 12 71 12q93 0 158.5 -65.5t65.5 -158.5q0 -81 -54 -145q54 -58 54 -143zM800 768q-66 0 -113 -47t-47 -113t47 -113t113 -47t113 47
t47 113t-47 113t-113 47zM160 192q32 0 57 10t39 22t39 22t57 10q40 0 68 -28t28 -68t-28 -68t-68 -28q32 64 32 96q0 17 -7 24.5t-25 7.5q-12 0 -40 -16t-69 -32t-83 -16q-12 0 -29.5 5t-40.5 18.5t-43 34t-33.5 55.5t-13.5 79q0 85 54 143q-54 64 -54 145q0 93 65.5 158.5
t158.5 65.5q33 0 71 -12q14 61 56.5 100.5t96.5 39.5v-64q-35 0 -61.5 -30t-32.5 -76q43 -31 68.5 -79t25.5 -103q0 -93 -65.5 -158.5t-158.5 -65.5q-66 0 -123 37q-37 -39 -37 -101q0 -58 33 -93t63 -35zM224 448q66 0 113 47t47 113t-47 113t-113 47t-113 -47t-47 -113
t47 -113t113 -47z" />
    <glyph glyph-name="uniF593" unicode="jcow" vert-adv-y="90" 
d="M896 704h-128q0 -192 -14 -316t-46.5 -196t-78.5 -100t-117 -28q-64 0 -123 17t-96 47t-37 64q0 26 0.5 39t3.5 35t9.5 35t19.5 27.5t31 23.5q-6 27 -25.5 87.5t-29 119.5t-9.5 145h-128q-61 0 -94.5 13.5t-33.5 50.5q0 43 39 85.5t89 42.5q29 0 67.5 -15.5t70.5 -39.5
q22 52 90 85.5t156 33.5t156 -33.5t90 -85.5q32 24 70.5 39.5t67.5 15.5q50 0 89 -42.5t39 -85.5q0 -37 -33.5 -50.5t-94.5 -13.5zM480 896q-32 0 -52 -4.5t-29 -14.5t-12 -19.5t-3 -25.5q0 -19 10 -43t22 -52t22 -104t10 -185q0 -42 -10.5 -81.5t-21.5 -46.5
q-96 -47 -96 -96q0 -43 64.5 -69.5t148.5 -26.5q5 4 12 11.5t19 32.5t12 52q0 99 16 242t32 250t16 116q0 27 -47 45.5t-113 18.5z" />
    <glyph glyph-name="uniF594" unicode="elgg" vert-adv-y="90" 
d="M512 192q122 0 212.5 71t107.5 185q0 40 28 68t68 28t68 -28t28 -68q0 -93 -44.5 -177.5t-116 -143t-164 -93t-187.5 -34.5q-104 0 -199 40.5t-163.5 109t-109 163.5t-40.5 199t40.5 199t109 163.5t163.5 109t199 40.5q134 0 256 -72t192 -184q13 -24 16.5 -46t-8 -44.5
t-40.5 -37.5l-466 -244q-34 -19 -72 -9t-57.5 42.5t-9 69t43.5 55.5l371 183q-94 95 -226 95q-87 0 -160.5 -43t-116.5 -116.5t-43 -160.5t43 -160.5t116.5 -116.5t160.5 -43z" />
    <glyph glyph-name="uniF595" unicode="etano" vert-adv-y="90" 
d="M1019.5 464q-6.5 -11 -19.5 -14.5t-24 2.5l-208 104v-197l124 -247q6 -11 3 -24t-14.5 -19.5t-24.5 -3t-20 14.5l-100 200l-100 -200q-7 -11 -20 -14.5t-24 3t-14.5 19.5t2.5 24l124 247v194l-176 -101q-8 -4 -16 -4q-5 0 -16 4l-176 101v-194l124 -247q6 -11 3 -24
t-14.5 -19.5t-24.5 -3t-20 14.5l-100 200l-100 -200q-7 -11 -20 -14.5t-24.5 3t-14.5 19.5t3 24l124 247v197l-208 -104q-11 -6 -24 -2.5t-19.5 14.5t-3 24t14.5 20l255 128q8 4 17 4t16 -4l208 -119l208 119q8 4 16 4q10 0 17 -4l255 -128q11 -7 14.5 -20t-3 -24zM736 704
q-40 0 -68 28t-28 68t28 68t68 28t68 -28t28 -68t-28 -68t-68 -28zM288 704q-40 0 -68 28t-28 68t28 68t68 28t68 -28t28 -68t-28 -68t-68 -28z" />
    <glyph glyph-name="uniF596" unicode="openclassifieds" vert-adv-y="90" 
d="M576 127q-149 0 -269 91q-39 -58 -84.5 -116t-62.5 -75q-28 -27 -66.5 -27t-66 27.5t-27.5 66t27 65.5q17 17 75.5 62.5t115.5 84.5q-90 120 -90 269q0 91 35.5 174t95.5 143t143 95.5t174 35.5t174 -35.5t143 -95.5t95.5 -143t35.5 -174t-35.5 -174t-95.5 -143
t-143 -95.5t-174 -35.5zM576 895q-87 0 -160.5 -43t-116.5 -116.5t-43 -160.5t43 -160.5t116.5 -116.5t160.5 -43t160.5 43t116.5 116.5t43 160.5t-43 160.5t-116.5 116.5t-160.5 43zM576 447q53 0 91 38l90 -91q-75 -75 -181 -75t-181 75t-75 181t75 181t181 75t181 -75
l-90 -90q-38 37 -91 37t-90.5 -37.5t-37.5 -90.5t37.5 -90.5t90.5 -37.5z" />
    <glyph glyph-name="uniF597" unicode="osclass" vert-adv-y="90" 
d="M960 704q-56 0 -125 32q61 -104 61 -224q0 -91 -35.5 -174t-95.5 -143t-143 -95.5t-174 -35.5t-174 35.5t-143 95.5t-95.5 143t-35.5 174t35.5 174t95.5 143t143 95.5t174 35.5q152 0 274 -94q29 26 64 53.5t46 34.5q16 9 32.5 4.5t25 -20.5t4 -34t-19.5 -27
q-30 -19 -107 -50q0 -1 0.5 -1.5t1.5 -0.5q54 -10 122 -27.5t101 -29.5q32 -11 32 -32q0 -13 -19.5 -22.5t-44.5 -9.5zM192 704q-64 -86 -64 -192q0 -32 6 -64h64q-6 17 -6 32q0 40 28 68t68 28t68 -28t28 -68q0 -15 -6 -32h140q-6 17 -6 32q0 40 28 68t68 28t68 -28t28 -68
q0 -15 -6 -32h63q7 32 7 64q0 106 -65 192h-511z" />
    <glyph glyph-name="uniF598" unicode="openx" vert-adv-y="90" 
d="M736 0q-62 0 -112.5 19.5t-90.5 60t-62.5 110t-22.5 162.5q0 23 2 50l127 -27q0 -3 -0.5 -10.5t-0.5 -12.5q0 -115 44 -169.5t116 -54.5t116 54.5t44 169.5q0 97 -31.5 150t-86.5 68l-28 133q59 -2 107.5 -22.5t86.5 -61t59 -109t21 -158.5q0 -93 -22.5 -162.5
t-62.5 -110t-90.5 -60t-112.5 -19.5zM512 576q0 -80 -56 -136t-136 -56t-136 56t-56 136q0 44 19.5 83t52.5 66q-8 22 -8 43q0 53 37.5 90.5t90.5 37.5q21 0 43 -8q27 33 66 52.5t83 19.5q80 0 136 -56.5t56 -136t-56 -135.5t-136 -56zM256 959.5q0 26.5 19 45.5t45.5 19
t45 -19t18.5 -45.5t-19 -45t-45 -18.5t-45 18.5t-19 45zM64.5 640q-26.5 0 -45.5 19t-19 45.5t19 45t45.5 18.5t45 -18.5t18.5 -45.5t-18.5 -45.5t-45 -18.5z" />
    <glyph glyph-name="uniF599" unicode="phplist" vert-adv-y="90" 
d="M832 448h-128v-256l-64 -64l-64 64v256h-128v-256l-64 64l-64 -64v256h-128q-80 0 -136 56t-56 135.5t56 136t136 56.5h256v-256h128v256h256q80 0 136 -56t56 -136t-56.5 -136t-135.5 -56zM320 704h-128q-27 0 -45.5 -19t-18.5 -45.5t18.5 -45t45.5 -18.5h128v128z
M832 704h-128v-128h128q26 0 45 18.5t19 45t-19 45.5t-45 19z" />
    <glyph glyph-name="uniF59A" unicode="roundcube" vert-adv-y="90" 
d="M736 0l-736 320v256l193 110q16 144 116 241t235 97q136 0 236.5 -98t114.5 -243l129 -43v-256zM544 960q-112 0 -194.5 -77.5t-93.5 -191.5q0 -25 40 -52t108 -45t140 -18t140 18t108 45t40 52q-11 114 -93.5 191.5t-194.5 77.5z" />
    <glyph glyph-name="uniF59B" unicode="pommo" vert-adv-y="90" 
d="M832 128v414l-224 -414h-192l-224 414v-414h-192v768h192l320 -576l320 576h192v-768h-192z" />
    <glyph glyph-name="uniF59C" unicode="webinsta" vert-adv-y="90" 
d="M1010 600l-226 -417q-18 -33 -53.5 -44t-90.5 -11q-27 0 -49.5 11t-34.5 27l-162 292q-16 28 -7 59.5t37.5 48.5t60 9t47.5 -36l96 -174l189 350q23 39 67 50.5t83.5 -12t52 -68.5t-9.5 -85zM512 641q-53 0 -90.5 37.5t-37.5 91t37.5 91t90.5 37.5t90.5 -37.5t37.5 -91
t-37.5 -91t-90.5 -37.5zM390 143.5q-40 -23.5 -83.5 -12t-66.5 51.5l-226 417q-22 40 -9.5 85t52 68.5t83.5 12t67 -50.5l226 -418q22 -40 9.5 -85t-52.5 -68.5z" />
    <glyph glyph-name="uniF59D" unicode="limesurvey" vert-adv-y="90" 
d="M1020 985q0 -2 -1 -7q-7 -23 -12.5 -39t-20.5 -48t-33.5 -56t-50 -52t-70.5 -47q-53 -26 -280 -31q88 -125 88 -321q0 -66 -23 -122t-59.5 -94.5t-83 -69t-91.5 -48.5t-87 -30t-68 -16t-36 -4q-12 0 -34 14.5t-49 45.5t-51.5 71t-41 99t-16.5 122q0 77 25 142t63 107
t90 75t98.5 50t96.5 28q-31 22 -53 46q-29 31 -57.5 89.5t-38.5 70.5q-58 64 0 64q27 0 95.5 -34t96.5 -62q15 -15 36.5 -51t38.5 -74q65 84 149 125q43 21 103.5 32.5t112 19t72.5 17.5q82 39 93 20q6 -10 -1 -32zM448 704q-16 0 -41.5 -4.5t-62.5 -15.5t-74 -27.5
t-74.5 -44.5t-66.5 -62.5t-47 -84.5t-18 -108q0 -60 20 -118t46.5 -94.5t51 -58.5t36.5 -22q9 0 36.5 8t68.5 23t84.5 42t81.5 60.5t62.5 82.5t24.5 104q0 60 -10.5 114.5t-26.5 90.5t-34 63t-33 39.5t-24 12.5z" />
    <glyph glyph-name="uniF59E" unicode="fengoffice" vert-adv-y="90" 
d="M979 257l-282 -89l193 445l127 -269q13 -27 2 -52.5t-40 -34.5zM411 890l269 127q27 13 52.5 2t34.5 -40l89 -282zM134 411l-127 269q-13 27 -2 52.5t40 34.5l282 89zM613 134l-269 -127q-27 -13 -52.5 -2t-34.5 40l-89 282z" />
    <glyph glyph-name="uniF59F" unicode="eyeos" vert-adv-y="90" 
d="M384 512q0 53 37.5 90.5t90.5 37.5t90.5 -37.5t37.5 -90.5t-37.5 -90.5t-90.5 -37.5t-90.5 37.5t-37.5 90.5zM928 384q-40 0 -68 28t-28 68q0 50 -13.5 108t-35.5 94q-43 69 -115 109.5t-156 40.5q-87 0 -160.5 -43t-116.5 -116.5t-43 -160.5t43 -160.5t116.5 -116.5
t160.5 -43q40 0 78.5 10t62.5 22t47.5 22t35.5 10q40 0 68 -28t28 -68q0 -28 -10 -49.5t-20 -28.5l-9 -8q-1 0 -1 -0.5t-1 -0.5q-125 -73 -279 -73q-104 0 -199 40.5t-163.5 109t-109 163.5t-40.5 199t40.5 199t109 163.5t163.5 109t199 40.5q173 0 309.5 -104t182.5 -267
q20 -69 20 -173q0 -40 -28 -68t-68 -28z" />
    <glyph glyph-name="uniF5A0" unicode="dotproject" vert-adv-y="90" 
d="M864 704q-66 0 -113 47t-47 113t47 113t113 47t113 -47t47 -113t-47 -113t-113 -47zM384 1024h256v-1024h-256v1024zM160 0q-66 0 -113 47t-47 113t47 113t113 47t113 -47t47 -113t-47 -113t-113 -47z" />
    <glyph glyph-name="uniF5A1" unicode="collabtive" vert-adv-y="90" 
d="M960 684v-24h-25q-1 -6 -4 -13l22 -13l-12 -20l-22 12q-4 -5 -9 -9l12 -22l-20 -12l-13 22q-6 -3 -13 -4v-25h-24v25q-6 1 -13 4l-13 -22l-20 12l12 22q-5 4 -9 9l-22 -12l-12 20l22 13q-3 6 -4 13h-25v24h25q1 6 4 13l-22 13l12 20l22 -12q4 5 9 9l-12 22l20 12l13 -22
q6 3 13 4v25h24v-25q6 -1 13 -4l13 22l20 -12l-12 -22q5 -4 9 -9l22 12l12 -20l-22 -13q3 -7 4 -13h25zM864 720q-20 0 -34 -14t-14 -34t14 -34t34 -14t34 14t14 34t-14 34t-34 14zM647 462l43 -25l-24 -42l-43 25q-9 -10 -19 -19l25 -43l-42 -24l-25 43q-13 -5 -26 -7v-50
h-48v50q-12 2 -26 7l-25 -43l-42 24l26 43q-11 9 -19 19l-44 -25l-24 42l43 25q-5 13 -7 26h-50v48h50q2 12 7 26l-43 25l24 42l44 -26q8 11 19 19l-26 44l42 24l25 -43q13 5 26 7v50h48v-50q12 -2 26 -7l25 43l42 -24l-25 -44q9 -8 19 -19l43 26l24 -42l-43 -25
q5 -13 7 -26h50v-48h-50q-2 -12 -7 -26zM512 608q-40 0 -68 -28t-28 -68t28 -68t68 -28t68 28t28 68t-28 68t-68 28zM512 768q-106 0 -181 -75t-75 -181t75 -181t181 -75q53 0 101 21l50 -117q-44 -19 -87 -26v-134h-128v134q-32 5 -69 19l-68 -116l-110 64l67 116
q-27 23 -51 51l-116 -67l-64 110l115 67q-12 35 -18 70h-134v128h134q6 35 18 70l-115 67l64 110l116 -67q24 28 51 51l-67 116l110 64l68 -116q37 14 69 19v134h128v-134q44 -7 87 -26l-50 -117q-48 21 -101 21z" />
    <glyph glyph-name="uniF5A2" unicode="projectpier" vert-adv-y="90" 
d="M512 0q-104 0 -199 40.5t-163.5 109t-109 163.5t-40.5 199t40.5 199t109 163.5t163.5 109t199 40.5t199 -40.5t163.5 -109t109 -163.5t40.5 -199t-40.5 -199t-109 -163.5t-163.5 -109t-199 -40.5zM512 960q-91 0 -174 -35.5t-143 -95.5t-95.5 -143t-35.5 -174t35.5 -174
t95.5 -143t143 -95.5t174 -35.5t174 35.5t143 95.5t95.5 143t35.5 174t-35.5 174t-95.5 143t-143 95.5t-174 35.5zM640 384h-256v-96q0 -13 -9.5 -22.5t-22.5 -9.5h-64q-13 0 -22.5 9.5t-9.5 22.5v448q0 13 9.5 22.5t22.5 9.5h352q80 0 136 -56t56 -136t-56 -136t-136 -56z
M640 640h-256v-128h256q27 0 45.5 18.5t18.5 45t-18.5 45.5t-45.5 19z" />
    <glyph glyph-name="uniF5A3" unicode="taskfreak" vert-adv-y="90" 
d="M930 509q0 -72 -25 -141l76 -67q-21 -49 -54 -93l-95 34q-47 -56 -110 -93l16 -100q-49 -24 -101 -37l-52 87q-38 -6 -72 -6t-72 6l-52 -87q-52 13 -101 37l16 100q-63 37 -110 93l-95 -34q-33 44 -54 93l77 67q-26 69 -26 141l-94 35q4 55 18 107l102 2q26 69 72 124
l-50 88q39 40 82 69l80 -64q63 36 134 49l19 100q28 3 54.5 3t53.5 -3l19 -100q72 -13 134 -49l80 64q43 -29 82 -69l-50 -88q46 -55 72 -124l102 -2q14 -51 18 -107zM513 637q-53 0 -90.5 -37.5t-37.5 -90.5t37.5 -90.5t90.5 -37.5t90.5 37.5t37.5 90.5t-37.5 90.5
t-90.5 37.5z" />
    <glyph glyph-name="uniF5A4" unicode="eventum" vert-adv-y="90" 
d="M0 0v1024h1024v-1024h-1024zM960 960h-896v-896h896v896zM832 704h-448v-128h256v-128h-256v-128h448v-128h-640v640h640v-128z" />
    <glyph glyph-name="uniF5A5" unicode="traq" vert-adv-y="90" 
d="M896 640q-31 0 -67 -30.5t-62.5 -70t-44.5 -75t-18 -48.5v-352q0 -26 -19 -45t-45.5 -19t-45 19t-18.5 45v640q0 27 18.5 45.5t45 18.5t45.5 -18.5t19 -45.5v-53q92 117 192 117q26 0 45 -18.5t19 -45t-19 -45.5t-45 -19zM384 640h-64v-576q0 -27 -19 -45.5t-45.5 -18.5
t-45 18.5t-18.5 45.5v576h-64q-27 0 -45.5 19t-18.5 45.5t18.5 45t45.5 18.5h64v192q0 27 18.5 45.5t45 18.5t45.5 -18.5t19 -45.5v-192h64q26 0 45 -18.5t19 -45t-19 -45.5t-45 -19z" />
    <glyph glyph-name="uniF5A6" unicode="mantisbugtracker" vert-adv-y="90" 
d="M736 800q-48 -48 -95.5 -114t-76.5 -124q35 -13 55.5 -34.5t20.5 -47.5q0 -31 -16.5 -70.5t-45.5 -63.5q22 -26 38 -58q5 -9 9 -18q23 73 47 114q1 2 23.5 42.5t39.5 69t39 66t37 58t20 20.5q27 0 46 -21.5t19 -74.5v-6q1 -116 -57 -232q-27 -56 -106 -182.5t-91 -122.5
q-8 2 19.5 91.5t63 205.5t41.5 163q-14 -32 -62 -141q-13 -29 -20 -43.5t-19 -38.5t-21.5 -35t-17.5 -11q-16 0 -42.5 28.5t-47.5 67.5q-9 17 -15 34q-1 0 -4 -1t-5 -1l-1 0.5l-1 0.5q2 -17 2 -33q0 -39 -9.5 -67.5t-22.5 -28.5q-5 0 -10 1t-10.5 3.5t-9.5 4.5t-10.5 6.5
t-10 7.5t-11 9.5t-11 9.5t-11.5 11t-12 11q-15 14 -30 29q4 -6 19 -30.5t28 -46.5t31.5 -52.5t32.5 -55.5t26 -48t17.5 -36.5t2.5 -15.5q-7 -4 -52.5 42t-103.5 109.5t-67 72.5q-96 96 -96 192q0 13 2.5 20t9 9.5t9 2.5h11.5q35 0 107.5 -51t107.5 -86q2 -3 9 -10q1 18 4 34
q-51 23 -91.5 68.5t-40.5 76.5q0 26 21 47.5t57 34.5q-57 73 -142 142q-172 141 -256 160q0 9 12 20.5t20 11.5q28 0 99.5 -33.5t156.5 -94.5q55 -39 104.5 -89.5t74.5 -102.5h5.5h7.5q15 0 31 -1q15 69 70.5 147.5t122.5 141.5q74 70 165 115t123 45q8 0 20 -11.5t12 -20.5
q-45 -10 -129.5 -64t-158.5 -128z" />
    <glyph glyph-name="uniF5A7" unicode="oscommerce" vert-adv-y="90" 
d="M767 328q-10 -138 -111 -233t-240 -95q-96 0 -177 47t-128 128t-47 177q0 111 63 200.5t164 128.5q-35 55 -35 119q0 93 65.5 158.5t158.5 65.5q84 0 146.5 -55t74.5 -137h1h2q106 0 181 -75t75 -181q0 -89 -54.5 -158t-138.5 -90zM672 800h-2h-1q-12 68 -65 114t-124 46
q-80 0 -136 -56t-56 -136q0 -56 31 -103q-85 -43 -138 -118t-53 -163q0 -87 43 -160.5t116.5 -116.5t160.5 -43q73 0 139.5 44.5t110.5 113.5t61 148q61 25 99 81t38 125q0 93 -65.5 158.5t-158.5 65.5z" />
    <glyph glyph-name="uniF5A8" unicode="&#x7a;encart" vert-adv-y="90" 
d="M928 417q-18 0 -25 43.5t-7 84.5q0 57 -21.5 111.5t-55.5 95t-72 70t-75 43.5q-45 17 -70.5 42.5t-25.5 53.5q0 26 18.5 44.5t45.5 18.5q39 0 89 -18t101.5 -54.5t95 -85.5t71 -116.5t27.5 -141.5q0 -45 -17.5 -91t-40 -73t-38.5 -27zM640 801q0 -32 -64 -32
q-51 0 -105 -21t-98.5 -52t-87.5 -71.5t-72.5 -75.5t-52.5 -69l-9 -13.5t-12.5 -18.5t-13 -17.5t-15.5 -18t-14.5 -13.5t-16.5 -11t-15 -3q-27 0 -45.5 18.5t-18.5 45.5q0 38 28 88.5t79 101.5t113.5 95t140.5 71.5t151 27.5q21 0 32 -0.5t29 -1t27.5 -3t20 -5.5t15 -9
t4.5 -13zM544 641q21 0 31.5 -10.5t2.5 -26t-34 -27.5q-98 -46 -161 -131.5t-63 -188.5q0 -38 16 -85.5t32 -85.5t16 -54q0 -15 -5.5 -24t-21.5 -7t-40 20q-50 37 -87.5 113t-37.5 155q0 95 47 176t128 128.5t177 47.5zM640 608.5q0 39.5 28 68t68 28.5t68 -28.5t28 -68
t-28 -67.5t-68 -28t-68 28t-28 67.5zM544 513q22 0 27 -15.5t5 -48.5q0 -93 65.5 -158.5t158.5 -65.5q28 0 85.5 23t98 38.5t40.5 2.5q0 -36 -21.5 -76t-55.5 -72.5t-82 -54t-97 -21.5q-71 0 -145 33.5t-124.5 94t-50.5 127.5q0 87 33 140t63 53z" />
    <glyph glyph-name="uniF5A9" unicode="tomatocart" vert-adv-y="90" 
d="M512 0q-104 0 -199 40.5t-163.5 109t-109 163.5t-40.5 199t40.5 199t109 163.5t163.5 109t199 40.5t199 -40.5t163.5 -109t109 -163.5t40.5 -199t-40.5 -199t-109 -163.5t-163.5 -109t-199 -40.5zM825 579q-53 -31 -135.5 -49t-177.5 -18t-177.5 18t-135.5 49
q0 1 -1.5 1.5t-1.5 1.5q18 98 109 174t207 76q41 0 83 -11l6 64q-45 11 -89 11q-104 0 -192 -49t-140 -137.5t-52 -197.5q0 -86 36 -162t99 -130q-7 -14 -7 -28q0 -26 19 -45t45 -19q33 0 52 27q68 -27 140 -27t140 27q19 -27 52 -27q27 0 45.5 19t18.5 45q0 14 -7 28
q63 54 99 130t36 162q0 19 -7 61t-10 52q-18 -24 -54 -46zM686 370q9 43 14 99q75 18 132 47v-2v-2q0 -48 -16 -97q-53 -29 -130 -45zM703 256q-37 0 -55 -33q-3 -2 -19 -8q23 38 40 89q63 15 116 41q-33 -53 -82 -89zM512 352q-53 0 -109 7q-9 41 -14 98q61 -9 123 -9
t123 9q-5 -57 -14 -98q-56 -7 -109 -7zM376 223q-18 33 -55 33q-49 36 -82 90q53 -27 116 -42q17 -51 40 -89q-16 6 -19 8zM192 512v2v2q57 -29 132 -47q5 -56 14 -99q-77 16 -130 45q-16 49 -16 97zM602 293q-18 -48 -41 -74.5t-49 -26.5t-49 26.5t-41 74.5q47 -5 90 -5
t90 5z" />
    <glyph glyph-name="uniF5AA" unicode="boxbilling" vert-adv-y="90" 
d="M960 256l-448 -256l-448 256l-64 576l512 192l512 -192zM512 832l-256 -128l32 -256l224 -128l224 128l32 256z" />
    <glyph glyph-name="uniF5AB" unicode="&#x7a;urmo" vert-adv-y="90" 
d="M640 128v-128l-128 128h-320v128h640v-128h-192zM192 448l384 448h-384v128h640v-128l-384 -448h384v-128h-640v128z" />
    <glyph glyph-name="uniF5AC" unicode="orangehrm" vert-adv-y="90" 
d="M608 768h-32q0 97 135 167q32 17 57 25q-45 0 -92 -19.5t-82 -48t-57.5 -61.5t-24.5 -60q-33 5 -48.5 18.5t-15.5 42.5q0 35 45.5 80.5t114.5 78.5t128 33q55 0 95 -8t53 -16l12 -8q0 -12 -32 -48.5t-75.5 -75.5t-95 -69.5t-85.5 -30.5zM576 512q-14 7 -39 17.5
t-92.5 28.5t-124.5 18q-52 0 -90 -50.5t-38 -141.5q0 -62 54.5 -122t136.5 -97t161 -37q77 0 144.5 37.5t105.5 96.5t38 122q0 173 -186 270q-57 30 -134 50q126 0 226 -35t161 -108.5t61 -176.5q0 -104 -60 -192.5t-163 -140t-225 -51.5t-225 51.5t-163 140t-60 192.5
q0 69 21.5 120.5t59 80t81 42t94.5 13.5q63 0 122.5 -18.5t96.5 -48.5t37 -61z" />
    <glyph glyph-name="uniF5AD" unicode="vtiger" vert-adv-y="90" 
d="M800 256q-54 0 -100.5 24t-77.5 65q-53 -25 -110 -25q-106 0 -181 75t-75 181q0 13 2 27q37 -10 63 -39q4 -76 59.5 -128t131.5 -52q78 0 134 55q14 -52 56.5 -85.5t97.5 -33.5q66 0 113 47t47 113t-47 113t-113 47q-54 0 -98 -35q-11 70 -64.5 116.5t-125.5 46.5
q-45 0 -84 -19.5t-66 -53.5q-28 18 -59 28q35 51 90 80t119 29q73 0 133.5 -37.5t92.5 -99.5q31 9 62 9q93 0 158.5 -65.5t65.5 -158.5t-65.5 -158.5t-158.5 -65.5zM402 615q53 25 110 25q106 0 181 -75t75 -181q0 -13 -2 -27q-37 10 -63 39q-4 76 -59.5 128t-131.5 52
q-78 0 -134 -55q-14 52 -56.5 85.5t-97.5 33.5q-66 0 -113 -47t-47 -113t47 -113t113 -47q54 0 98 35q11 -70 64.5 -116.5t125.5 -46.5q45 0 84 19.5t66 53.5q28 -18 59 -28q-35 -51 -90 -80t-119 -29q-73 0 -133.5 37.5t-92.5 99.5q-31 -9 -62 -9q-93 0 -158.5 65.5
t-65.5 158.5t65.5 158.5t158.5 65.5q54 0 100.5 -24t77.5 -65z" />
    <glyph glyph-name="uniF5AE" unicode="mibew" vert-adv-y="90" 
d="M704 640v160l192 160l128 -128v-480zM768 128h-256v320l160 128l288 -256zM384 544v256l128 96l128 -128v-128l-160 -128zM448 160l-128 -96l-320 320l320 96l128 -32v-288zM0 896l320 -96v-256l-320 -96v448z" />
    <glyph glyph-name="uniF5AF" unicode="phpmyfaq" vert-adv-y="90" 
d="M512 192v128q58 0 107.5 26.5t81 69.5t49.5 95t18 104q0 90 -68.5 153.5t-166.5 63.5q-72 0 -142 -36t-107 -92l-85 153q61 75 155.5 121t189.5 46q96 0 177 -47t128 -128t47 -177q0 -82 -33 -169t-85.5 -155t-123.5 -112t-142 -44zM448 259v-63q-87 10 -150 48
t-99.5 101.5t-53.5 143.5t-17 183q0 26 7 57l121 -121q1 -92 20 -164.5t63 -123.5t109 -61zM764 192q38 0 57 -28t7.5 -68t-47 -68t-73.5 -28t-57 28t-7.5 68t47 68t73.5 28z" />
    <glyph glyph-name="uniF5B0" unicode="yiiframework" vert-adv-y="90" 
d="M768 384q-32 128 -64 192q-21 43 -32 67.5t-21.5 68t-10.5 88.5q0 57 14.5 102t38 70.5t51 38.5t56.5 13q46 0 83.5 -37.5t57 -95.5t19.5 -123q0 -92 -54 -196t-138 -188zM416 0q-4 7 -9 21.5t-14 64t-9 106.5q0 50 44 127t102 147q-138 76 -274 110q-53 13 -95 34.5
t-68 43.5t-45 52t-28 52.5t-14 53.5t-5.5 46t-0.5 38q0 28 46.5 46t145.5 18q74 0 151 -41.5t140 -108.5t114 -147t79 -162.5t28 -148.5q0 -64 -24 -122.5t-59 -99t-75.5 -71t-75 -45t-54.5 -14.5z" />
    <glyph glyph-name="uniF5B1" unicode="&#x7a;endframework" vert-adv-y="90" 
d="M745 704h-745q1 5 3 14.5t11.5 36t21.5 50.5t35 54t50.5 51t69 35.5t88.5 14.5h745q-1 -5 -3 -14.5t-11.5 -36t-21.5 -50.5t-35 -53.5t-50.5 -51t-69 -36t-88.5 -14.5zM279 640h425q-1 -5 -3 -14.5t-11.5 -36t-21.5 -50.5t-35 -53.5t-50.5 -51t-69 -36t-88.5 -14.5h-425
q1 5 3 14.5t11.5 36t21.5 50.5t35 54t50.5 51t69 35.5t88.5 14.5zM279 320h169q-1 -5 -3 -14.5t-11.5 -36t-21.5 -50.5t-35 -53.5t-50.5 -51t-69 -36t-88.5 -14.5h-169q1 5 3 14.5t11.5 36t21.5 50.5t35 54t50.5 51t69 35.5t88.5 14.5z" />
    <glyph glyph-name="uniF5B2" unicode="fuelphp" vert-adv-y="90" 
d="M576 0q-32 0 -64 6q-32 -6 -64 -6q-87 0 -160.5 43t-116.5 116.5t-43 160.5q0 72 34.5 173t76.5 184t97.5 174t77 123t34.5 50q27 -38 64 -96l64 96q13 -18 34.5 -50t76.5 -123t97.5 -174t77 -184t34.5 -173q0 -87 -43 -160.5t-116.5 -116.5t-160.5 -43zM448 928
q-10 -16 -27.5 -43.5t-61.5 -105t-78 -147t-61.5 -152t-27.5 -136.5q0 -116 75 -198t181 -82t181 82t75 198q0 54 -26.5 134.5t-64 156t-75.5 143t-63.5 109t-26.5 41.5zM544 877q224 -365 224 -557q0 -71 -29 -133.5t-81 -107.5q77 28 125.5 101t48.5 164q0 54 -26.5 134.5
t-64 156t-75 143t-64.5 109.5l-26 41q-13 -20 -32 -51z" />
    <glyph glyph-name="uniF5B3" unicode="kohana" vert-adv-y="90" 
d="M865 672q-6 -31 -32 -54.5t-51.5 -32.5t-44.5 -9h-96q0 -24 20 -44t44 -20h128l-58 -480q-2 -13 -13 -22.5t-24 -9.5h-197q-14 0 -22.5 9.5t-6.5 22.5l58 490q-4 20 -11 31.5t-18 16t-18.5 5.5t-23.5 1q-9 0 -15.5 -1.5t-17 -11t-20.5 -28.5l-55 -375q-2 -13 -13 -22.5
t-24 -9.5h-197q-14 0 -22.5 9.5t-6.5 22.5l122 832q2 13 13 22.5t25 9.5h197q14 0 22 -9.5t6 -22.5l-33 -224h1q0 -13 1 -22t3.5 -20t9.5 -16.5t18 -5.5q44 0 67.5 19t28.5 45l25 160q2 13 13 22.5t25 9.5h197q14 0 22 -9.5t6 -22.5z" />
    <glyph glyph-name="uniF5B4" unicode="smarty" vert-adv-y="90" 
d="M1024 406q-138 -16 -197 -103t-59 -239q-62 50 -138 73q-10 -9 -22 -9h-192q-12 0 -22 9q-76 -23 -138 -73q0 152 -59 239t-197 103q235 173 101 428q288 -69 411 190q123 -259 411 -190q-134 -255 101 -428zM512 768q-106 0 -181 -80.5t-75 -193.5q0 -15 3 -29.5
t6 -24.5t11.5 -24t12.5 -20t15.5 -22.5t15.5 -21.5q21 -24 58.5 -57t53.5 -55t16 -48h128q0 26 16.5 48t53.5 55t58 57q4 5 15.5 21.5t15.5 22.5t12.5 20t11.5 24t6 24.5t3 29.5q0 113 -75 193.5t-181 80.5zM416 128h192q13 0 22.5 -9.5t9.5 -22.5t-9.5 -22.5t-22.5 -9.5
q0 -29 -23 -46.5t-73 -17.5t-73 17.5t-23 46.5q-13 0 -22.5 9.5t-9.5 22.5t9.5 22.5t22.5 9.5z" />
    <glyph glyph-name="uniF5B5" unicode="sidu" vert-adv-y="90" 
d="M724 704q79 -53 125.5 -137.5t46.5 -182.5q0 -104 -51.5 -192.5t-140 -140t-192.5 -51.5t-192.5 51.5t-140 140t-51.5 192.5q0 99 46.5 183t125.5 137q-79 53 -125.5 137.5t-46.5 182.5q124 0 223 -71.5t139 -185.5q19 1 22 1t22 -1q40 114 139 185.5t223 71.5
q0 -98 -46.5 -182.5t-125.5 -137.5zM512 640q-106 0 -181 -75t-75 -181t75 -181t181 -75t181 75t75 181t-75 181t-181 75z" />
    <glyph glyph-name="uniF5B6" unicode="simplepie" vert-adv-y="90" 
d="M608 832q84 0 159.5 -24t132.5 -68t90.5 -111t33.5 -149q0 -60 -16 -111.5t-54 -96.5t-95.5 -76.5t-146 -49.5t-200.5 -18q-93 0 -175.5 28.5t-143 78t-105 114.5t-66.5 139.5t-22 151.5v192q0 13 13 -4q41 -52 54 -65q60 -59 125 -59q42 0 96.5 20t99.5 44t105.5 44
t114.5 20z" />
    <glyph glyph-name="uniF5B7" unicode="projectsend" vert-adv-y="90" 
d="M122 743l470 271q27 15 56.5 7t44.5 -34l321 -555q13 -23 9 -48q-307 0 -553 100t-348 259zM969 321l-538 -311q-26 -15 -55.5 -7.5t-45.5 34.5l-330 539q142 -115 402.5 -184t566.5 -71z" />
    <glyph glyph-name="uniF5B8" unicode="extjs" vert-adv-y="90" 
d="M1024 576v-128l-145 -48q-10 -32 -28 -67l68 -138l-45 -45l-136 136q45 44 69.5 102.5t24.5 123.5q0 87 -43 160.5t-116.5 116.5t-160.5 43t-160.5 -43t-116.5 -116.5t-43 -160.5q0 -133 94 -226l-136 -136l-45 45l68 138q-18 35 -28 67l-145 48v128l145 48q10 32 28 67
l-68 138l90 90l138 -68q35 19 67 28l48 145h128l48 -145q32 -9 67 -28l138 68l90 -90l-68 -138q18 -35 28 -67zM896 0h-768l384 384z" />
    <glyph glyph-name="uniF5B9" unicode="raphael" vert-adv-y="90" 
d="M962 362l-300 -300q-62 -62 -150 -62t-150 62l-300 300q-62 62 -62 150t62 150l300 300q62 62 150 62t150 -62l300 -300q62 -62 62 -150t-62 -150zM775 325q-121 -20 -232 37t-189 192q-51 87 -41 193q-57 -110 -57 -235t55 -223.5t143 -149.5q42 -17 89 -7.5t82 43.5z
M512 896q-53 0 -90.5 -37.5t-37.5 -90.5t37.5 -90.5t90.5 -37.5t90.5 37.5t37.5 90.5t-37.5 90.5t-90.5 37.5zM175 399l36 -35q-19 70 -19 148q0 74 19 149l-36 -37q-47 -46 -47 -112t47 -113zM849 624l-145 146v-1.5v-0.5q0 -80 -56 -136t-136 -56q-65 0 -118 41
q8 -18 15 -31q43 -74 100.5 -121.5t118 -64.5t122 -11t119.5 34q31 46 26 103.5t-46 97.5z" />
    <glyph glyph-name="uniF5BA" unicode="si&#x7a;&#x7a;le" vert-adv-y="90" 
d="M1020 480q-11 -84 -60.5 -161.5t-120 -133t-157 -88.5t-170.5 -33q-91 0 -163 10t-106 22t-65 22t-50 10q105 21 137 45q-135 57 -247 147h462l-32 -128l384 256l-256 256l-32 -128h-544q26 26 82.5 58t116 66.5t93.5 66.5q-1 0 -2 0.5t-2 0.5q-36 0 -59 13t-30.5 32
t-9.5 37.5t0 32t3 13.5q18 -18 30.5 -28.5t40.5 -23t57 -12.5t85 26.5t64 28.5q-10 16 -15 34t-6 28v11q23 -23 47 -37t52 -19.5t45.5 -6.5t47.5 -1q84 0 159.5 -33t128 -88.5t78.5 -133t14 -161.5z" />
    <glyph glyph-name="uniF5BB" unicode="yui" vert-adv-y="90" 
d="M640 0q-95 0 -197.5 34.5t-186.5 93.5q12 34 29 71q-104 68 -157 121q14 24 34 54q-84 60 -162 138q75 125 229.5 227t363.5 161.5t431 59.5q-384 -480 -384 -960zM576 64q0 173 79 381t209 387q-38 -26 -109.5 -97.5t-151 -165.5t-151 -206.5t-100.5 -202.5
q62 -48 113.5 -72t110.5 -24zM96 512q52 -48 103 -82q202 297 441 429q-94 -27 -185 -72t-160 -94t-119 -95.5t-80 -85.5zM224 320q32 -32 87 -66q88 174 231.5 347.5t279.5 271.5q-75 -23 -152 -71.5t-140 -105.5t-123.5 -127t-103.5 -129.5t-79 -119.5z" />
    <glyph glyph-name="uniF5BC" unicode="scissorsalt" vert-adv-y="90" 
d="M436 512l588 -512q-56 0 -181.5 61.5t-255.5 146.5t-210 156q7 -22 7 -44q0 -54 -25 -113t-71 -101t-96 -42q-80 0 -136 56t-56 136t56 136t136 56q4 0 21 -1q6 32 34 73q-15 31 -21 57q-18 -1 -34 -1q-80 0 -136 56t-56 135.5t56 136t136 56.5q50 0 96 -42t71 -101
t25 -113q0 -26 -10 -50q146 120 358.5 245t291.5 125zM192 896q-53 0 -90.5 -37.5t-37.5 -90.5t37.5 -90.5t90.5 -37.5h17q24 0 36 0.5t29.5 3.5t25.5 9.5t14 19t6 31.5q0 36 -16.5 80.5t-47.5 78t-64 33.5zM192 384q-53 0 -90.5 -37.5t-37.5 -90.5t37.5 -90.5t90.5 -37.5
q33 0 64 33.5t47.5 78t16.5 80.5q0 19 -6 31.5t-14 19t-25.5 9.5t-29.5 3.5t-36 0.5h-17z" />
    <glyph glyph-name="uniF5BD" unicode="cuthere" vert-adv-y="90" 
d="M896 0v64h128v-64h-128zM436 512l441 -384h-160q-212 122 -340 236q7 -22 7 -44q0 -54 -25 -113t-71 -101t-96 -42q-80 0 -136 56t-56 136t56 136t136 56q4 0 21 -1q6 32 34 74q-16 30 -20 56q-19 -1 -35 -1q-80 0 -136 56t-56 136t56 136t136 56q50 0 96 -42t71 -101
t25 -113q0 -26 -10 -50q146 120 358.5 245t291.5 125zM192 896q-53 0 -90.5 -37.5t-37.5 -90.5t37.5 -90.5t90.5 -37.5h17q24 0 36 0.5t29.5 3.5t25.5 9.5t14 19t6 31.5q0 36 -16.5 80.5t-47.5 78t-64 33.5zM192 384q-53 0 -90.5 -37.5t-37.5 -90.5t37.5 -90.5t90.5 -37.5
q33 0 64 33.5t47.5 78t16.5 80.5q0 19 -6 31.5t-14 19t-25.5 9.5t-29.5 3.5t-36 0.5h-17zM448 0h-128v64h128v-64zM640 0h-128v64h128v-64zM832 0h-128v64h128v-64z" />
    <glyph glyph-name="uniF5BE" unicode="coinsalt" vert-adv-y="90" 
d="M992 192h-64q13 0 22.5 -9.5t9.5 -22.5v-128q0 -13 -9.5 -22.5t-22.5 -9.5h-832q-13 0 -22.5 9.5t-9.5 22.5v128q0 13 9.5 22.5t22.5 9.5h64q-13 0 -22.5 9.5t-9.5 22.5v128q0 13 9.5 22.5t22.5 9.5h-128q-13 0 -22.5 9.5t-9.5 22.5v128q0 13 9.5 22.5t22.5 9.5h64
q-13 0 -22.5 9.5t-9.5 22.5v128q0 13 9.5 22.5t22.5 9.5h-64q-13 0 -22.5 9.5t-9.5 22.5v128q0 13 9.5 22.5t22.5 9.5h832q13 0 22.5 -9.5t9.5 -22.5v-128q0 -13 -9.5 -22.5t-22.5 -9.5h64q13 0 22.5 -9.5t9.5 -22.5v-128q0 -13 -9.5 -22.5t-22.5 -9.5h-64q13 0 22.5 -9.5
t9.5 -22.5v-128q0 -13 -9.5 -22.5t-22.5 -9.5h128q13 0 22.5 -9.5t9.5 -22.5v-128q0 -13 -9.5 -22.5t-22.5 -9.5zM512 64h64v64h-64v-64zM320 320v-64h192v64h-192zM512 448v64h-64v-64h64zM256 640h192v64h-192v-64zM192 512v-64h192v64h-192zM256 64h192v64h-192v-64z
M256 320h-64v-64h64v64zM128 128v-64h64v64h-64zM64 512v-64h64v64h-64zM128 896h-64v-64h64v64zM128 640h64v64h-64v-64zM384 896h-192v-64h192v64zM512 896h-64v-64h64v64zM576 704h-64v-64h64v64zM640 320h-64v-64h64v64z" />
    <glyph glyph-name="uniF5BF" unicode="parkingmeter" vert-adv-y="90" 
d="M804 237l-54 -183q-3 -23 -23.5 -38.5t-45.5 -15.5h-338q-25 0 -45.5 15.5t-23.5 38.5l-54 183q-73 63 -114.5 151t-41.5 188q0 91 35.5 174t95.5 143t143 95.5t174 35.5t174 -35.5t143 -95.5t95.5 -143t35.5 -174q0 -100 -41.5 -188t-114.5 -151zM352 384h320
q13 0 22.5 9.5t9.5 22.5t-9.5 22.5t-22.5 9.5h-320q-13 0 -22.5 -9.5t-9.5 -22.5t9.5 -22.5t22.5 -9.5zM512 960q-143 0 -252 -91.5t-132 -228.5q152 -56 337 -63l181 182q16 15 36 7q-73 66 -170 66q-82 0 -147.5 -46.5t-92.5 -121.5q-35 7 -63 15q33 96 116 156.5
t187 60.5t187 -60.5t116 -156.5q-28 -8 -63 -15q-16 45 -51 83q8 -20 -7 -36l-135 -134q185 7 337 63q-22 137 -131.5 228.5t-252.5 91.5z" />
    <glyph glyph-name="uniF5C0" unicode="treethree" vert-adv-y="90" 
d="M960 640q0 -53 -37.5 -90.5t-90.5 -37.5q-14 0 -30 4q-22 -32 -56 -50t-74 -18q-21 0 -46 7q-22 -31 -36 -69.5t-14 -65.5v-128q0 -53 21 -122.5t43 -69.5h-256q22 0 43 69.5t21 122.5v128q0 26 -13 62t-33 67q-74 7 -116 67q-16 -4 -30 -4q-53 0 -90.5 37.5t-37.5 90.5
q0 1 0.5 3t0.5 3q-29 10 -47 34.5t-18 55.5q0 40 28 68t68 28q16 0 34 -7q10 58 54.5 96.5t103.5 38.5q21 0 46 -7q16 32 46.5 51.5t67.5 19.5q35 0 64.5 -18t46.5 -48q39 -3 70 -23q34 25 75 25q53 0 90.5 -37.5t37.5 -90.5q0 -39 -22 -72q38 -13 62 -46t24 -74z" />
    <glyph glyph-name="uniF5C1" unicode="packarchive" vert-adv-y="90" 
d="M960 0h-896q-27 0 -45.5 19t-18.5 45v512q0 27 18.5 45.5t45.5 18.5h320q3 219 63 353q7 13 19.5 22t22.5 9h54q11 0 23 -9t19 -22q57 -134 56 -353h319q27 0 45.5 -18.5t18.5 -45.5v-512q0 -26 -19 -45t-45 -19zM960 576h-321q-1 -32 -4 -64h118q15 -13 15 -32.5
t-15 -33.5l-207 -207q-14 -15 -34.5 -15t-34.5 15l-207 207q-14 14 -14 33.5t14 32.5h117q-2 32 -3 64h-320v-512h896v512z" />
    <glyph glyph-name="uniF5C2" unicode="unpackarchive" vert-adv-y="90" 
d="M960 0h-896q-27 0 -45.5 19t-18.5 45v512q0 27 18.5 45.5t45.5 18.5h320q0 47 3 96h-117q-14 13 -14 32.5t14 33.5l207 207q14 15 34.5 15t34.5 -15l207 -207q15 -14 15 -33.5t-15 -32.5h-118q4 -50 5 -96h320q27 0 45.5 -18.5t18.5 -45.5v-512q0 -26 -18.5 -45
t-45.5 -19zM960 576h-319q-3 -198 -57 -321q-6 -13 -18 -22t-23 -9h-54q-10 0 -22.5 9t-19.5 22q-55 123 -62 321h-321v-512h896v512z" />
    <glyph glyph-name="uniF5C3" unicode="terminalalt" vert-adv-y="90" 
d="M896 0h-768q-53 0 -90.5 37.5t-37.5 90.5v768q0 53 37.5 90.5t90.5 37.5h768q53 0 90.5 -37.5t37.5 -90.5v-768q0 -53 -37.5 -90.5t-90.5 -37.5zM490 562l-187 188q-19 20 -46.5 20t-47 -19.5t-19.5 -47t20 -46.5l141 -143l-141 -142q-20 -20 -20 -47.5t19.5 -46.5
t47 -19t46.5 19l187 188q18 17 19 42t-14 44q2 3 -5 10zM768 385h-192q-26 0 -45 -19t-19 -45.5t19 -45.5t45 -19h192q27 0 45.5 19t18.5 45.5t-18.5 45.5t-45.5 19z" />
    <glyph glyph-name="uniF5C4" unicode="jersey" vert-adv-y="90" 
d="M897 135q0 -23 -18 -46.5t-44 -33.5q-155 -55 -323 -55t-323 55q-25 10 -43 33.5t-18 46.5v370q0 45 10 88.5t22 70t22 55t10 49.5v256h128v-64q0 -80 56.5 -136t136 -56t135.5 56t56 136v64h129q-1 -169 0 -256q0 -21 10 -49.5t22 -55t22 -70t10 -88.5v-198.5v-171.5z
M448 544q0 13 -9 22.5t-23 9.5h-64q-13 0 -22.5 -9.5t-9.5 -23t9.5 -22.5t22.5 -9h32v-225q0 -13 9.5 -22.5t23 -9.5t22.5 9.5t9 22.5v257zM640 544q0 13 -9 22.5t-23 9.5h-64q-13 0 -22.5 -9.5t-9.5 -23t9.5 -22.5t22.5 -9h32v-225q0 -13 9.5 -22.5t23 -9.5t22.5 9.5
t9 22.5v257z" />
    <glyph glyph-name="uniF5C5" unicode="vial" vert-adv-y="90" 
d="M736 960h-32v-768q0 -80 -56 -136t-136 -56t-136 56t-56 136v768h-32q-13 0 -22.5 9.5t-9.5 22.5t9.5 22.5t22.5 9.5h448q13 0 22.5 -9.5t9.5 -22.5t-9.5 -22.5t-22.5 -9.5zM544 192q13 0 22.5 9.5t9.5 22.5t-9.5 22.5t-22.5 9.5t-22.5 -9.5t-9.5 -22.5t9.5 -22.5
t22.5 -9.5zM447.5 320q26.5 0 45.5 19t19 45.5t-19 45t-45.5 18.5t-45 -18.5t-18.5 -45t18.5 -45.5t45 -19zM640 960h-256v-320h256v320zM608 512q-13 0 -22.5 -9.5t-9.5 -22.5t9.5 -22.5t22.5 -9.5t22.5 9.5t9.5 22.5t-9.5 22.5t-22.5 9.5z" />
    <glyph glyph-name="uniF5C6" unicode="noteslist" vert-adv-y="90" 
d="M896 0h-768q-53 0 -90.5 37.5t-37.5 90.5v640q0 53 37.5 90.5t90.5 37.5h64v64q0 27 18.5 45.5t45.5 18.5t45.5 -18.5t18.5 -45.5v-64h128v64q0 27 18.5 45.5t45 18.5t45.5 -18.5t19 -45.5v-64h128v64q0 27 18.5 45.5t45 18.5t45.5 -18.5t19 -45.5v-64h64
q53 0 90.5 -37.5t37.5 -90.5v-640q0 -53 -37.5 -90.5t-90.5 -37.5zM896 768h-64q0 -26 -18.5 -45t-45 -19t-45.5 19t-19 45h-128q0 -26 -18.5 -45t-45 -19t-45.5 19t-19 45h-128q0 -26 -18.5 -45t-45 -19t-45.5 19t-19 45h-64v-640h768v640zM224 640h576q13 0 22.5 -9.5
t9.5 -22.5t-9.5 -22.5t-22.5 -9.5h-576q-13 0 -22.5 9.5t-9.5 22.5t9.5 22.5t22.5 9.5zM224 448h576q13 0 22.5 -9.5t9.5 -22.5t-9.5 -22.5t-22.5 -9.5h-576q-13 0 -22.5 9.5t-9.5 22.5t9.5 22.5t22.5 9.5zM224 256h576q13 0 22.5 -9.5t9.5 -22.5t-9.5 -22.5t-22.5 -9.5
h-576q-13 0 -22.5 9.5t-9.5 22.5t9.5 22.5t22.5 9.5z" />
    <glyph glyph-name="uniF5C7" unicode="notestasks" vert-adv-y="90" 
d="M896 0h-768q-53 0 -90.5 37.5t-37.5 90.5v640q0 53 37.5 90.5t90.5 37.5h64v64q0 27 18.5 45.5t45.5 18.5t45.5 -18.5t18.5 -45.5v-64h128v64q0 27 19 45.5t45.5 18.5t45 -18.5t18.5 -45.5v-64h128v64q0 27 19 45.5t45.5 18.5t45 -18.5t18.5 -45.5v-64h64
q53 0 90.5 -37.5t37.5 -90.5v-640q0 -53 -37.5 -90.5t-90.5 -37.5zM896 768h-64q0 -26 -18.5 -45t-45 -19t-45.5 19t-19 45h-128q0 -26 -18.5 -45t-45 -19t-45.5 19t-19 45h-128q0 -26 -18.5 -45t-45 -19t-45.5 19t-19 45h-64v-640h768v640zM362 495l86 -86l213 214
q19 18 44.5 18t44 -18t18.5 -44t-18 -44l-248 -247q-6 -11 -8 -13q-19 -19 -46 -18q-28 -1 -47 18q-2 2 -8 13l-120 119q-18 18 -18 44t18.5 44t44 18t44.5 -18z" />
    <glyph glyph-name="uniF5C8" unicode="notesdate" vert-adv-y="90" 
d="M896 0h-768q-53 0 -90.5 37.5t-37.5 90.5v640q0 53 37.5 90.5t90.5 37.5h64v64q0 27 19 45.5t45.5 18.5t45 -18.5t18.5 -45.5v-64h128v64q0 27 19 45.5t45.5 18.5t45 -18.5t18.5 -45.5v-64h128v64q0 27 19 45.5t45.5 18.5t45 -18.5t18.5 -45.5v-64h64q53 0 90.5 -37.5
t37.5 -90.5v-640q0 -53 -37.5 -90.5t-90.5 -37.5zM896 768h-64q0 -26 -18.5 -45t-45 -19t-45.5 19t-19 45h-128q0 -26 -18.5 -45t-45 -19t-45.5 19t-19 45h-128q0 -26 -18.5 -45t-45 -19t-45.5 19t-19 45h-64v-640h768v640zM320 576q-27 0 -45.5 -18.5t-18.5 -45.5
q0 -13 -9.5 -22.5t-22.5 -9.5t-22.5 9.5t-9.5 22.5q0 53 37.5 90.5t90.5 37.5t90.5 -37.5t37.5 -90.5v-32q0 -53 -37.5 -90.5t-90.5 -37.5q-27 0 -45.5 -18.5t-18.5 -45.5v-16q0 -7 4.5 -11.5t11.5 -4.5h144q13 0 22.5 -9.5t9.5 -22.5t-9.5 -22.5t-22.5 -9.5h-192
q-13 0 -22.5 9.5t-9.5 22.5v64q0 53 37.5 90.5t90.5 37.5q27 0 45.5 18.5t18.5 45.5v32q0 27 -18.5 45.5t-45.5 18.5zM704 640q53 0 90.5 -37.5t37.5 -90.5v-192q0 -53 -37.5 -90.5t-90.5 -37.5q-58 0 -93 23t-35 73q0 13 9.5 22.5t22.5 9.5t22.5 -9.5t9.5 -22.5
q0 -12 3.5 -19t13 -9.5t16.5 -3t23 -0.5h8q27 0 45.5 19t18.5 45v49q-30 -17 -64 -17q-53 0 -90.5 37.5t-37.5 90.5v32q0 53 37.5 90.5t90.5 37.5zM640 480q0 -26 19 -45t45.5 -19t45 18.5t18.5 45.5v32q0 27 -18.5 45.5t-45 18.5t-45.5 -18.5t-19 -45.5v-32z" />
    <glyph glyph-name="uniF5C9" unicode="noteslocation" vert-adv-y="90" 
d="M896 0h-768q-53 0 -90.5 37.5t-37.5 90.5v640q0 53 37.5 90.5t90.5 37.5h64v64q0 27 19 45.5t45.5 18.5t45 -18.5t18.5 -45.5v-64h128v64q0 27 19 45.5t45.5 18.5t45 -18.5t18.5 -45.5v-64h128v64q0 27 19 45.5t45.5 18.5t45 -18.5t18.5 -45.5v-64h64q53 0 90.5 -37.5
t37.5 -90.5v-640q0 -53 -37.5 -90.5t-90.5 -37.5zM896 768h-64q0 -26 -18.5 -45t-45 -19t-45.5 19t-19 45h-128q0 -26 -18.5 -45t-45 -19t-45.5 19t-19 45h-128q0 -26 -18.5 -45t-45 -19t-45.5 19t-19 45h-64v-640h768v640zM512.5 640q79.5 0 135.5 -56t56 -136
q0 -37 -25.5 -84t-58.5 -84t-64.5 -62.5t-43.5 -25.5t-43.5 25.5t-64.5 62.5t-58.5 84t-25.5 84q0 80 56.5 136t136 56zM512 320q53 0 90.5 37.5t37.5 90.5t-37.5 90.5t-90.5 37.5t-90.5 -37.5t-37.5 -90.5t37.5 -90.5t90.5 -37.5z" />
    <glyph glyph-name="uniF5CA" unicode="noteslistalt" vert-adv-y="90" 
d="M896 0h-768q-53 0 -90.5 37.5t-37.5 90.5v640q0 53 37.5 90.5t90.5 37.5h64v64q0 27 19 45.5t45.5 18.5t45 -18.5t18.5 -45.5v-64h128v64q0 27 19 45.5t45.5 18.5t45 -18.5t18.5 -45.5v-64h128v64q0 27 19 45.5t45.5 18.5t45 -18.5t18.5 -45.5v-64h64q53 0 90.5 -37.5
t37.5 -90.5v-640q0 -53 -37.5 -90.5t-90.5 -37.5zM800 640h-576q-13 0 -22.5 -9.5t-9.5 -22.5t9.5 -22.5t22.5 -9.5h576q13 0 22.5 9.5t9.5 22.5t-9.5 22.5t-22.5 9.5zM800 448h-576q-13 0 -22.5 -9.5t-9.5 -22.5t9.5 -22.5t22.5 -9.5h576q13 0 22.5 9.5t9.5 22.5t-9.5 22.5
t-22.5 9.5zM800 256h-576q-13 0 -22.5 -9.5t-9.5 -22.5t9.5 -22.5t22.5 -9.5h576q13 0 22.5 9.5t9.5 22.5t-9.5 22.5t-22.5 9.5z" />
    <glyph glyph-name="uniF5CB" unicode="notestasksalt" vert-adv-y="90" 
d="M896 0h-768q-53 0 -90.5 37.5t-37.5 90.5v640q0 53 37.5 90.5t90.5 37.5h64v64q0 27 18.5 45.5t45.5 18.5t45.5 -18.5t18.5 -45.5v-64h128v64q0 27 18.5 45.5t45.5 18.5t45.5 -18.5t18.5 -45.5v-64h128v64q0 27 18.5 45.5t45.5 18.5t45.5 -18.5t18.5 -45.5v-64h64
q53 0 90.5 -37.5t37.5 -90.5v-640q0 -53 -37.5 -90.5t-90.5 -37.5zM813.5 622.5q-18.5 18.5 -44 18.5t-44.5 -18l-277 -278l-150 150q-19 18 -44.5 18t-44 -18.5t-18.5 -44t19 -43.5l183 -183q6 -11 8 -14q19 -18 47 -17q27 -1 46 17q2 3 8 14l312 311q18 18 18 43.5
t-18.5 44z" />
    <glyph glyph-name="uniF5CC" unicode="notesdatealt" vert-adv-y="90" 
d="M896 0h-768q-53 0 -90.5 37.5t-37.5 90.5v640q0 53 37.5 90.5t90.5 37.5h64v64q0 27 18.5 45.5t45.5 18.5t45.5 -18.5t18.5 -45.5v-64h128v64q0 27 18.5 45.5t45.5 18.5t45.5 -18.5t18.5 -45.5v-64h128v64q0 27 18.5 45.5t45.5 18.5t45.5 -18.5t18.5 -45.5v-64h64
q53 0 90.5 -37.5t37.5 -90.5v-640q0 -53 -37.5 -90.5t-90.5 -37.5zM320 352q53 0 90.5 37.5t37.5 90.5v32q0 53 -37.5 90.5t-90.5 37.5t-90.5 -37.5t-37.5 -90.5q0 -13 9.5 -22.5t22.5 -9.5t22.5 9.5t9.5 22.5q0 27 18.5 45.5t45.5 18.5t45.5 -18.5t18.5 -45.5v-32
q0 -26 -18.5 -45t-45.5 -19q-53 0 -90.5 -37.5t-37.5 -90.5v-64q0 -13 9.5 -22.5t22.5 -9.5h192q13 0 22.5 9.5t9.5 22.5t-9.5 22.5t-22.5 9.5h-144q-7 0 -11.5 4.5t-4.5 11.5v16q0 27 18.5 45.5t45.5 18.5zM832 512q0 53 -37.5 90.5t-90.5 37.5t-90.5 -37.5t-37.5 -90.5
v-32q0 -53 37.5 -90.5t90.5 -37.5q34 0 64 17v-49q0 -27 -18.5 -45.5t-45.5 -18.5h-8q-16 0 -23 0.5t-16.5 3t-13 9.5t-3.5 19q0 13 -9.5 22.5t-22.5 9.5t-22.5 -9.5t-9.5 -22.5q0 -50 35 -73t93 -23q53 0 90.5 37.5t37.5 90.5v192zM704 416q-27 0 -45.5 19t-18.5 45v32
q0 27 18.5 45.5t45.5 18.5t45.5 -18.5t18.5 -45.5v-32q0 -26 -18.5 -45t-45.5 -19z" />
    <glyph glyph-name="uniF5CD" unicode="noteslocationalt" vert-adv-y="90" 
d="M896 0h-768q-53 0 -90.5 37.5t-37.5 90.5v640q0 53 37.5 90.5t90.5 37.5h64v64q0 27 18.5 45.5t45.5 18.5t45.5 -18.5t18.5 -45.5v-64h128v64q0 27 18.5 45.5t45.5 18.5t45.5 -18.5t18.5 -45.5v-64h128v64q0 27 18.5 45.5t45.5 18.5t45.5 -18.5t18.5 -45.5v-64h64
q53 0 90.5 -37.5t37.5 -90.5v-640q0 -53 -37.5 -90.5t-90.5 -37.5zM512 704q-80 0 -136 -56t-56 -136q0 -37 25.5 -94t58.5 -106t64.5 -84.5t43.5 -35.5t43.5 35.5t64.5 84.5t58.5 106t25.5 94q0 80 -56 136t-136 56zM384 512q0 53 37.5 90.5t90.5 37.5t90.5 -37.5
t37.5 -90.5t-37.5 -90.5t-90.5 -37.5t-90.5 37.5t-37.5 90.5z" />
    <glyph glyph-name="uniF5CE" unicode="useralt" vert-adv-y="90" 
d="M1024 67q0 -12 -13.5 -22t-41.5 -16.5t-57.5 -12t-75.5 -8.5t-80 -4.5t-87.5 -2.5t-81 -1h-75.5h-75.5t-81 1t-87.5 2.5t-80 4.5t-75.5 8.5t-57.5 12t-41.5 16.5t-13.5 22q2 88 110 155.5t274 89.5v33q-52 23 -90 65t-59.5 98.5t-32 121t-10.5 138.5q0 65 25 115t69 80.5
t101 46t125 15.5t125 -15.5t101 -46t69 -80.5t25 -115q0 -349 -192 -426v-30q166 -22 274 -89.5t110 -155.5zM768 751q0 104 -71.5 157t-184.5 53t-184.5 -53t-71.5 -157q0 -68 10 -125t32 -106.5t60 -82.5t90 -46v-138q-60 -5 -117 -20.5t-98 -34t-73 -38t-48 -34.5
t-16 -22q0 -14 38 -23t114 -12t127 -4t137 -1t137 1t127 4t114 12t38 23q0 7 -16 22t-48 34.5t-72.5 38t-98 34t-117.5 20.5v138q192 41 192 360z" />
    <glyph glyph-name="uniF5CF" unicode="adduseralt" vert-adv-y="90" 
d="M1024 224q0 -93 -65.5 -158.5t-158.5 -65.5h-288h-76t-81 1t-87 2.5t-80 4.5t-75.5 8.5t-57.5 12t-41.5 16.5t-13.5 22q2 88 110 155.5t274 89.5v33q-52 23 -90 65t-60 98.5t-32 121t-10 138.5q0 65 25 114.5t69 80t101 46t125 15.5t125 -15.5t101 -46t69 -80t25 -114.5
q0 -214 -71 -324q23 4 39 4q93 0 158.5 -65.5t65.5 -158.5zM768 751q0 103 -71.5 156t-184.5 53t-184.5 -53t-71.5 -156q0 -68 10 -125.5t32 -106.5t60 -82t90 -46v-138q-60 -6 -117.5 -21t-98.5 -33.5t-72.5 -38t-47.5 -34.5t-16 -22q0 -14 38 -23t114 -12t126.5 -4
t137.5 -1q85 0 131 1q-67 66 -67 159q0 6 3 28q-1 1 -2 1h-1v138q192 41 192 360zM768 352v-96h-96q-13 0 -22.5 -9.5t-9.5 -22.5t9.5 -22.5t22.5 -9.5h96v-96q0 -13 9.5 -22.5t22.5 -9.5t22.5 9.5t9.5 22.5v96h96q13 0 22.5 9.5t9.5 22.5t-9.5 22.5t-22.5 9.5h-96v96
q0 13 -9.5 22.5t-22.5 9.5t-22.5 -9.5t-9.5 -22.5z" />
    <glyph glyph-name="uniF5D0" unicode="removeuseralt" vert-adv-y="90" 
d="M1024 224q0 -93 -65.5 -158.5t-158.5 -65.5h-288h-76t-81 1t-87 2.5t-80 4.5t-75.5 8.5t-57.5 12t-41.5 16.5t-13.5 22q2 88 110 155.5t274 89.5v33q-52 23 -90 65t-60 98.5t-32 121t-10 138.5q0 65 25 114.5t69 80t101 46t125 15.5t125 -15.5t101 -46t69 -80t25 -114.5
q0 -214 -71 -324q23 4 39 4q93 0 158.5 -65.5t65.5 -158.5zM768 751q0 103 -71.5 156t-184.5 53t-184.5 -53t-71.5 -156q0 -68 10 -125.5t32 -106.5t60 -82t90 -46v-138q-60 -6 -117.5 -21t-98.5 -33.5t-72.5 -38t-47.5 -34.5t-16 -22q0 -14 38 -23t114 -12t126.5 -4
t137.5 -1q85 0 131 1q-67 66 -67 159q0 6 3 29h-2h-1v138q192 41 192 360zM672 256q-13 0 -22.5 -9.5t-9.5 -22.5t9.5 -22.5t22.5 -9.5h256q13 0 22.5 9.5t9.5 22.5t-9.5 22.5t-22.5 9.5h-256z" />
    <glyph glyph-name="uniF5D1" unicode="banuseralt" vert-adv-y="90" 
d="M1024 224q0 -93 -65.5 -158.5t-158.5 -65.5h-288h-76t-81 1t-87 2.5t-80 4.5t-75.5 8.5t-57.5 12t-41.5 16.5t-13.5 22q2 88 110 155.5t274 89.5v33q-52 23 -90 65t-60 98.5t-32 121t-10 138.5q0 65 25 114.5t69 80t101 46t125 15.5t125 -15.5t101 -46t69 -80t25 -114.5
q0 -214 -71 -324q23 4 39 4q93 0 158.5 -65.5t65.5 -158.5zM960 224q0 50 -29 91l-222 -222q41 -29 91 -29q66 0 113 47t47 113zM768 751q0 103 -71.5 156t-184.5 53t-184.5 -53t-71.5 -156q0 -68 10 -125t32 -106.5t60 -82.5t90 -46v-138q-60 -6 -117.5 -21t-98.5 -33.5
t-72.5 -38t-47.5 -34.5t-16 -22q0 -14 38 -23t114 -12t126.5 -4t137.5 -1q85 0 131 1q-67 66 -67 159q0 6 3 28q-1 1 -2 1h-1v138q192 41 192 360zM640 224q0 -50 29 -91l222 222q-41 29 -91 29q-66 0 -113 -47t-47 -113z" />
    <glyph glyph-name="uniF5D2" unicode="banuser" vert-adv-y="90" 
d="M800 0q-93 0 -158.5 65.5t-65.5 158.5t65.5 158.5t158.5 65.5t158.5 -65.5t65.5 -158.5t-65.5 -158.5t-158.5 -65.5zM960 224q0 50 -29 91l-222 -222q41 -29 91 -29q66 0 113 47t47 113zM640 224q0 -50 29 -91l222 222q-41 29 -91 29q-66 0 -113 -47t-47 -113zM512 224
q0 -66 28.5 -124.5t78.5 -99.5h-107h-76t-81 1t-87 2.5t-80 4.5t-75.5 8.5t-57.5 12t-41.5 16.5t-13.5 22q2 88 110 155.5t274 89.5v33q-52 23 -90 65t-60 98.5t-32 121t-10 138.5q0 65 25 114.5t69 80t101 46t125 15.5t125 -15.5t101 -46t69 -80t25 -114.5q0 -156 -37 -256
q-118 -2 -200.5 -86t-82.5 -202z" />
    <glyph glyph-name="uniF5D3" unicode="paintrollalt" vert-adv-y="90" 
d="M954 356l52 -51q18 -19 18 -45t-18 -44l-134 -134q-18 -18 -44.5 -18t-44.5 18l-348 309l-79 -79l14 -13q14 -15 14 -36t-14 -35l-213 -213q-15 -15 -36 -15t-35 15l-71 71q-15 14 -15 35t15 36l213 213q14 14 35 14t36 -14l14 -14l51 51l4 4q13 13 20.5 19t23.5 12t36 6
q11 0 24 -8t22 -16l8 -8l330 -288l128 128l-53 53l-35 -35q-18 -18 -44.5 -18t-44.5 18l-509 509q-19 19 -19 45t19 44l133 134q19 18 45 18t44 -18l510 -509q18 -19 18 -45t-18 -44z" />
    <glyph glyph-name="uniF5D4" unicode="textcursor" vert-adv-y="90" 
d="M704 896h-64q-24 0 -44 -47.5t-20 -80.5v-512q0 -33 20 -80.5t44 -47.5h64q26 0 45 -19t19 -45.5t-19 -45t-45 -18.5h-96q-29 0 -62.5 41.5t-33.5 86.5q0 -45 -33.5 -86.5t-62.5 -41.5h-96q-27 0 -45.5 18.5t-18.5 45t18.5 45.5t45.5 19h64q24 0 44 47.5t20 80.5v512
q0 33 -20 80.5t-44 47.5h-64q-27 0 -45.5 18.5t-18.5 45t18.5 45.5t45.5 19h96q27 0 61.5 -41.5t34.5 -86.5q0 45 34.5 86.5t61.5 41.5h96q26 0 45 -19t19 -45.5t-19 -45t-45 -18.5z" />
    <glyph glyph-name="uniF5D5" unicode="textfield" vert-adv-y="90" 
d="M960 256h-448v-64h96q13 0 22.5 -9.5t9.5 -22.5t-9.5 -22.5t-22.5 -9.5h-256q-13 0 -22.5 9.5t-9.5 22.5t9.5 22.5t22.5 9.5h96v64h-384q-27 0 -45.5 18.5t-18.5 45.5v320q0 26 18.5 45t45.5 19h384v64h-96q-13 0 -22.5 9.5t-9.5 22.5t9.5 22.5t22.5 9.5h256
q13 0 22.5 -9.5t9.5 -22.5t-9.5 -22.5t-22.5 -9.5h-96v-64h448q27 0 45.5 -19t18.5 -45v-320q0 -27 -19 -45.5t-45 -18.5zM448 640h-384v-320h384v320zM960 640h-448v-320h448v320zM160 576q13 0 22.5 -9.5t9.5 -22.5v-128q0 -13 -9.5 -22.5t-22.5 -9.5t-22.5 9.5t-9.5 22.5
v128q0 13 9.5 22.5t22.5 9.5z" />
    <glyph glyph-name="uniF5D6" unicode="precisecursor" vert-adv-y="90" 
d="M992 448h-320q-13 0 -22.5 9.5t-9.5 22.5v64q0 13 9.5 22.5t22.5 9.5h320q13 0 22.5 -9.5t9.5 -22.5v-64q0 -13 -9.5 -22.5t-22.5 -9.5zM544 0h-64q-13 0 -22.5 9.5t-9.5 22.5v320q0 13 9.5 22.5t22.5 9.5h64q13 0 22.5 -9.5t9.5 -22.5v-320q0 -13 -9.5 -22.5t-22.5 -9.5
zM512 448q-27 0 -45.5 18.5t-18.5 45.5t18.5 45.5t45.5 18.5t45.5 -18.5t18.5 -45.5t-18.5 -45.5t-45.5 -18.5zM544 640h-64q-13 0 -22.5 9.5t-9.5 22.5v320q0 13 9.5 22.5t22.5 9.5h64q13 0 22.5 -9.5t9.5 -22.5v-320q0 -13 -9.5 -22.5t-22.5 -9.5zM352 448h-320
q-13 0 -22.5 9.5t-9.5 22.5v64q0 13 9.5 22.5t22.5 9.5h320q13 0 22.5 -9.5t9.5 -22.5v-64q0 -13 -9.5 -22.5t-22.5 -9.5z" />
    <glyph glyph-name="uniF5D7" unicode="brokenlink" vert-adv-y="90" 
d="M947.5 76.5q-76.5 -76.5 -185 -76.5t-184.5 77l-52 51l113 64l25 -24q39 -40 95.5 -40t96.5 40t40 96.5t-40 95.5l-188 189l76 101l203 -204q77 -76 77 -184.5t-76.5 -185zM231 633l345 -121l-32 -128l-350 130q-105 27 -159 120t-26 197t122 157.5t199 26.5l214 -87
l-32 -128l-211 94q-54 14 -103 -14t-64 -82t13.5 -102.5t83.5 -62.5z" />
    <glyph glyph-name="uniF5D8" unicode="bookmarkthree" vert-adv-y="90" 
d="M991 321h-288v-288q0 -22 -27 -30.5t-40 5.5l-610 610q-26 26 -26 63t26 63l254 254q26 26 63 26t63 -26l610 -610q14 -13 6 -40t-31 -27z" />
    <glyph glyph-name="uniF5D9" unicode="bookmarkfour" vert-adv-y="90" 
d="M991 321h-288v-288q0 -22 -27 -30.5t-40 5.5l-610 610q-26 26 -26 63t26 63l254 254q26 26 63 26t63 -26l610 -610q14 -13 5.5 -40t-30.5 -27zM448 800l-89 -68l-108 41l41 -108l-68 -89l115 1l77 -96v127h127l-96 77z" />
    <glyph glyph-name="uniF5DA" unicode="warmedalalt" vert-adv-y="90" 
d="M894 640q-5 -17 -16 -28l-128 -128l-45 12v528h127q27 0 45.5 -19t18.5 -45v-303v-1v-16h-2zM480 704l-96 -192v512h257v-512l-96 192h-65zM146 612q-11 11 -16 28h-1v6q-2 10 0 21v293q0 26 18.5 45t45.5 19h127v-528l-46 -12zM416 425l96 214l96 -214l225 -41
l-165 -151l42 -233l-198 114l-197 -114l42 233l-165 151z" />
    <glyph glyph-name="uniF5DB" unicode="thinking" vert-adv-y="90" 
d="M1024 720q0 -42 -18.5 -78t-50.5 -61q5 -20 5 -37q0 -66 -47 -113t-113 -47q-35 0 -69 16q-26 -37 -67 -58.5t-88 -21.5q-53 0 -97.5 27t-69.5 73q-38 -36 -89 -36q-53 0 -90.5 37.5t-37.5 90.5q-80 0 -136 56t-56 136t56 136t136 56q41 0 79 -17q24 64 81 104.5
t128 40.5q50 0 94 -21.5t76 -58.5q14 36 46 58t72 22q53 0 90.5 -37.5t37.5 -90.5q0 -1 -0.5 -3.5t-0.5 -3.5q57 -16 93 -62.5t36 -106.5zM192 128q27 0 45.5 -18.5t18.5 -45t-19 -45.5t-45.5 -19t-45 19t-18.5 45t18.5 45t45.5 19zM352 320q40 0 68 -28t28 -68t-28 -68
t-68 -28t-68 28t-28 68t28 68t68 28z" />
    <glyph glyph-name="uniF5DC" unicode="commentlove" vert-adv-y="90" 
d="M512 128q-66 0 -134 16q-103 -121 -201 -142l-17 -2q26 57 30 124.5t-13 113.5q-83 63 -130 151t-47 187q0 91 40.5 174t109 143t163.5 95.5t199 35.5t199 -35.5t163.5 -95.5t109 -143t40.5 -174t-40.5 -174t-109 -143t-163.5 -95.5t-199 -35.5zM640 768
q-53 0 -90.5 -37.5t-37.5 -90.5q0 53 -37.5 90.5t-90.5 37.5t-90.5 -37.5t-37.5 -90.5v-1q0 -53 26 -114t83 -119l147 -86l147 86q59 61 84 115.5t25 117.5v1q0 53 -37.5 90.5t-90.5 37.5zM512 640v0v0z" />
    <glyph glyph-name="uniF5DD" unicode="commentsmiley" vert-adv-y="90" 
d="M512 128q-66 0 -134 16q-34 -40 -69.5 -69.5t-60 -43.5t-47.5 -21.5t-30.5 -8.5t-10.5 -1q26 57 30 124.5t-13 113.5q-83 63 -130 151t-47 187q0 91 40.5 174t109 143t163.5 95.5t199 35.5t199 -35.5t163.5 -95.5t109 -143t40.5 -174t-40.5 -174t-109 -143t-163.5 -95.5
t-199 -35.5zM448 736q0 13 -9.5 22.5t-22.5 9.5h-64q-13 0 -22.5 -9.5t-9.5 -22.5v-64q0 -13 9.5 -22.5t22.5 -9.5h64q13 0 22.5 9.5t9.5 22.5v64zM448 480q0 13 -9.5 22.5t-22.5 9.5h-64q-13 0 -22.5 -9.5t-9.5 -22.5v-64q0 -13 9.5 -22.5t22.5 -9.5h64q13 0 22.5 9.5
t9.5 22.5v64zM640 832h-64q23 -23 37 -49t19.5 -63.5t6.5 -63.5t1 -80t-1 -80t-6.5 -63.5t-19.5 -63.5t-37 -49h64q26 26 39 39.5t33 40.5t30 49.5t18 56t8 70.5t-8 70.5t-18 56t-30 49t-33 40.5t-39 40z" />
    <glyph glyph-name="uniF48C" unicode="phpnuke" vert-adv-y="90" 
d="M768 256h-64v-128l-320 192v64h384q53 0 90.5 37.5t37.5 90.5t-37.5 90.5t-90.5 37.5h-64v128h64q106 0 181 -75t75 -181t-75 -181t-181 -75zM256 640q-53 0 -90.5 -37.5t-37.5 -90.5t37.5 -90.5t90.5 -37.5h64v-128h-64q-106 0 -181 75t-75 181t75 181t181 75h64v128
l320 -192v-64h-384z" />
    <glyph glyph-name="uniF48D" unicode="modx" vert-adv-y="90" 
d="M1024 896l-235 -313l-298 199l85 114h448zM896 512v-320l-267 178l160 213zM597 327l-298 199l32 43l298 -199zM896 128v-128l-363 242l64 85zM448 128h-448l235 313l298 -199zM128 512v128l171 -114l-64 -85zM128 704v320l363 -242l-160 -213z" />
    <glyph glyph-name="uniF48E" unicode="oneohseven" vert-adv-y="90" 
d="M1002 458l-74 -74l-64 64l65 64l-417 416l-416 -416l64 -64l-64 -64l-73 74q-23 22 -23 54t23 54l435 436q22 22 54 22t54 -22l436 -436q22 -22 22 -54t-22 -54zM566 681l330 -329l-64 -64l-320 320l-320 -320l-64 64l330 329q22 23 54 23t54 -23zM566 489l234 -233
l-64 -64l-224 224l-224 -224l-64 64l234 233q22 23 54 23t54 -23zM512 95l128 128l64 -63l-138 -137q-22 -23 -54 -23t-54 23l-138 137l64 64z" />
    <glyph glyph-name="uniF48F" unicode="subrion" vert-adv-y="90" 
d="M768 640q-87 0 -160.5 -43t-116.5 -116.5t-43 -160.5q0 -85 43 -160q-69 -18 -130 -47.5t-94.5 -53t-70 -41.5t-68.5 -18q-56 0 -92 50t-36 142q0 61 33 134t92 141q-28 17 -44.5 46t-16.5 63q0 81 92 151.5t236 94.5q-8 23 -8 42q0 66 56 113t136 47q90 0 171 -41.5
t139.5 -111t94.5 -163t42 -195.5q-45 59 -111.5 93t-143.5 34zM768 576q106 0 181 -75t75 -181t-75 -181t-181 -75t-181 75t-75 181t75 181t181 75zM832.5 320q26.5 0 45 18.5t18.5 45t-18.5 45.5t-45 19t-45.5 -19t-19 -45.5t19 -45t45.5 -18.5z" />
    <glyph glyph-name="uniF490" unicode="typothree" vert-adv-y="90" 
d="M897 518q-14 -6 -26 -6q-42 0 -87 36.5t-81 91t-65.5 116t-45.5 115.5t-16 84q0 34 18 65q78 4 174 4q140 0 198 -46.5t58 -145.5q0 -37 -35 -122.5t-92 -191.5zM384 896q0 -40 21 -110t59.5 -149.5t85 -151t105 -118.5t113.5 -47q2 0 12 2q-94 -143 -182 -232.5
t-150 -89.5q-46 0 -99.5 43.5t-102 112t-94.5 152.5t-79 166t-53 152t-20 110q0 48 24.5 89t64 69t96.5 50t114 35.5t123 23.5q-38 -47 -38 -107z" />
    <glyph glyph-name="uniF491" unicode="tikiwiki" vert-adv-y="90" 
d="M1012 549l-68 -101h-112v192h-160l-96 -64v192h-64v-384h64v120l96 -120h64l-122 153l58 39h96v-128v-64h132l-230 -340q-18 -31 -53.5 -40.5t-67.5 8.5l-505 342q-31 18 -40.5 53.5t8.5 67.5l68 101h112v-96q0 -49 37 -72.5t91 -23.5v64q-17 0 -25.5 0.5t-19 3.5t-15 10
t-4.5 18v96h128v-192h64v256h-192v195l98 145q18 31 53.5 40.5t67.5 -8.5l505 -342q31 -18 40.5 -53.5t-8.5 -67.5zM448 768h-64v-64h64v64zM832 768h-64v-64h64v64zM192 741v-101h-68z" />
    <glyph glyph-name="uniF492" unicode="pligg" vert-adv-y="90" 
d="M320 672l-320 -113q255 185 384 433zM320 384v-320q-88 222 -287 416zM640 256l320 -128q-139 0 -189.5 -5.5t-130.5 -26.5q-70 -19 -95 -26t-70.5 -25.5t-90.5 -44.5zM997 249l-145 259l172 228q-64 -241 -27 -487zM479 1023q121 -77 237 -124.5t244 -66.5l-288 -64z
" />
    <glyph glyph-name="uniF493" unicode="pyrocms" vert-adv-y="90" 
d="M896 0h-768q-53 0 -90.5 37.5t-37.5 90.5v768q0 53 37.5 90.5t90.5 37.5h768q53 0 90.5 -37.5t37.5 -90.5v-768q0 -53 -37.5 -90.5t-90.5 -37.5zM710 576l-197 320l-198 -320q-36 -69 -50.5 -133t-1.5 -130t62 -112q78 -73 187.5 -73t186.5 73q49 46 62.5 112t-1 130
t-50.5 133zM512 192q-80 0 -136 56t-56 135.5t56 136t136 56.5t136 -56.5t56 -136t-56 -135.5t-136 -56z" />
    <glyph glyph-name="uniF494" unicode="mambo" vert-adv-y="90" 
d="M980 700q-41 -20 -109.5 -41.5t-166 -49.5t-144.5 -42q27 -10 95 -32t104.5 -34.5t83.5 -31.5t76 -35q22 -13 32.5 -38t8.5 -49.5t-13 -42.5q-18 -29 -58 -42t-79 6q-19 11 -41 28.5t-38.5 31.5t-45 40.5t-41.5 39t-47 46t-42 41.5q-1 -11 -2.5 -50t-2 -54.5t-2.5 -49.5
t-4 -52.5t-4.5 -44.5t-6.5 -46.5t-8 -37.5q-11 -40 -52.5 -68t-76 -28t-59.5 28t-12 68q10 33 32.5 83t40 85t54 106.5t47.5 93.5q-29 -20 -95.5 -69.5t-105 -77.5t-89.5 -61.5t-87 -52.5q-45 -20 -79 -6.5t-42 42.5q-6 29 15 70t60 61q26 12 57 24.5t76.5 27t70.5 22.5
t86.5 26.5t76.5 23.5q-13 3 -48 12.5t-51 14t-45 12.5t-46 13.5t-38.5 12.5t-36.5 13.5t-27 12.5q-17 10 -21 27.5t2.5 34t19.5 27.5q20 18 55.5 26.5t64.5 -3.5q21 -11 53.5 -33t53.5 -37.5t70.5 -53.5t63.5 -49q-1 106 -1 276q0 31 23 54.5t48.5 32.5t46.5 9
q28 0 53.5 -17t20.5 -41q-6 -30 -24 -73t-57 -121t-50 -102q31 21 112.5 78t132.5 90t88 50q34 13 66 4t45 -29q6 -14 7 -31.5t-11 -37t-33 -30.5z" />
    <glyph glyph-name="uniF495" unicode="contao" vert-adv-y="90" 
d="M896 0h-89q82 70 123.5 172.5t25.5 208.5q-42 -10 -126 -31t-126 -30q0 -95 -33 -143.5t-95 -48.5q-128 0 -160 128q-5 21 -35.5 131t-45.5 185t-15 132q0 53 45 90.5t115 37.5q49 0 98.5 -40t61.5 -88q38 8 76.5 19t85 25.5t62.5 19.5q-26 88 -89.5 154.5t-148.5 101.5
h270q53 0 90.5 -37.5t37.5 -90.5v-768q0 -53 -37.5 -90.5t-90.5 -37.5zM68 580q33 -192 85 -379q35 -119 140 -201h-165q-53 0 -90.5 37.5t-37.5 90.5v768q0 53 37.5 90.5t90.5 37.5h187q-123 -55 -195.5 -181t-51.5 -263z" />
    <glyph glyph-name="uniF496" unicode="crackedegg" vert-adv-y="90" 
d="M768 512l-128 -128l-192 128l-128 -128l-181 121q11 69 31.5 139t54 139t74 122t96.5 86t117 33q56 0 107 -27t90 -72.5t71.5 -103.5t55 -123t36.5 -127.5t20 -120.5zM320 320l128 128l192 -128l128 128l128 -64q0 -104 -51.5 -192.5t-140 -140t-192.5 -51.5t-192.5 51.5
t-140 140t-51.5 192.5q0 25 3 62z" />
    <glyph glyph-name="uniF497" unicode="coffeecupalt" vert-adv-y="90" 
d="M896 768h-6l-26 -320h-163q-11 55 -55 91.5t-102 36.5t-102 -36.5t-55 -91.5h-163l-26 320h-6q-27 0 -45.5 18.5t-18.5 45t18.5 45.5t45.5 19v64q0 27 18.5 45.5t45.5 18.5h576q26 0 45 -18.5t19 -45.5v-64q26 0 45 -19t19 -45.5t-19 -45t-45 -18.5zM387 384
q11 -55 55 -91.5t102 -36.5t102 36.5t55 91.5h158l-27 -320q-4 -24 -21.5 -44t-42.5 -20h-448q-25 0 -42.5 20t-21.5 44l-27 320h158z" />
    <glyph glyph-name="uniF498" unicode="reademailalt" vert-adv-y="90" 
d="M960 0h-64h-768h-64q-27 0 -45.5 18.5t-18.5 45.5v192v640q0 53 37.5 90.5t90.5 37.5h768q53 0 90.5 -37.5t37.5 -90.5v-640v-128v-64q0 -27 -18.5 -45.5t-45.5 -18.5zM896 768q0 53 -37.5 90.5t-90.5 37.5h-512q-53 0 -90.5 -37.5t-37.5 -90.5v-384q0 -26 19 -45t45 -19
h32q21 0 39 -8.5t25 -23.5q5 -17 16.5 -66t15.5 -62q8 -20 24 -26t45 -6h249q29 0 43.5 6t22.5 26q19 90 32 128q13 32 64 32h32q27 0 45.5 19t18.5 45v384zM511 396q-1 -12 -9 -19l-45 -45q-10 -10 -25 -9q-15 -1 -25 9l-45 45q-5 5 -7 11l-90 88q-9 9 -9 22.5t9 22.5
l46 46q9 9 22.5 9t23.5 -9l71 -71l239 263q10 9 23.5 9t22.5 -9l46 -46q9 -9 9 -22.5t-9 -22.5z" />
    <glyph glyph-name="uniF499" unicode="train" vert-adv-y="90" 
d="M792 0h-215h-64h-216q-28 0 -37.5 23t4.5 54l91 190q9 21 31 37q72 -48 158.5 -48t158.5 48q22 -16 31 -37l91 -190q14 -31 4.5 -54t-37.5 -23zM432.5 188q-11.5 7 -24.5 3.5t-19 -16.5l-32 -60q-7 -12 -3.5 -26t15 -21t24.5 -3.5t19 16.5l32 60q7 12 3.5 26t-15 21z
M577 160q0 13 -9.5 22.5t-23 9.5t-22.5 -9.5t-9 -22.5v-64q0 -13 9 -22.5t22.5 -9.5t23 9.5t9.5 22.5v64zM732 115l-32 60q-6 13 -19 16.5t-24.5 -3.5t-15 -21t3.5 -26l32 -60q6 -13 19 -16.5t24.5 3.5t15 21t-3.5 26zM544.5 320q-92.5 0 -158 65.5t-65.5 158.5q0 84 55 147
t137 74v131q-27 0 -46 18.5t-19 45.5t19 45.5t46 18.5h64q26 0 45 -18.5t19 -45.5t-19 -45.5t-45 -18.5v-131q81 -11 136.5 -74t55.5 -147q0 -93 -66 -158.5t-158.5 -65.5zM544.5 576q-13.5 0 -22.5 -9.5t-9 -22.5t9 -22.5t22.5 -9.5t23 9.5t9.5 22.5t-9.5 22.5t-23 9.5z
" />
    <glyph glyph-name="uniF49A" unicode="shoebox" vert-adv-y="90" 
d="M992 704h-960q-13 0 -22.5 9.5t-9.5 22.5v128q0 13 9.5 22.5t22.5 9.5h960q13 0 22.5 -9.5t9.5 -22.5v-128q0 -13 -9.5 -22.5t-22.5 -9.5zM96 640h832q13 0 22.5 -9.5t9.5 -22.5v-448q0 -13 -9.5 -22.5t-22.5 -9.5h-832q-13 0 -22.5 9.5t-9.5 22.5v448q0 13 9.5 22.5
t22.5 9.5zM320 288q0 -13 9.5 -22.5t22.5 -9.5h320q13 0 22.5 9.5t9.5 22.5v192q0 13 -9.5 22.5t-22.5 9.5h-320q-13 0 -22.5 -9.5t-9.5 -22.5v-192z" />
    <glyph glyph-name="uniF49B" unicode="bathtub" vert-adv-y="90" 
d="M992 448h-960q-13 0 -22.5 9.5t-9.5 22.5t9.5 22.5t22.5 9.5h800v352q0 40 -28 68t-68 28t-68 -28t-28 -68v-32l64 -64h-192l64 64v32q0 66 47 113t113 47t113 -47t47 -113v-352h96q13 0 22.5 -9.5t9.5 -22.5t-9.5 -22.5t-22.5 -9.5zM960 256q0 -61 -58 -112t-134 -71
v-41q0 -13 -9.5 -22.5t-22.5 -9.5t-22.5 9.5t-9.5 22.5v32h-384v-32q0 -13 -9.5 -22.5t-22.5 -9.5t-22.5 9.5t-9.5 22.5v41q-76 20 -134 71t-58 112v128h896v-128z" />
    <glyph glyph-name="uniF49C" unicode="ninegag" vert-adv-y="90" 
d="M512 0l-448 256l192 96l256 -160l256 160v224l-256 -128l-448 224v96l448 256l448 -256v-512zM704 736l-192 96l-192 -96l192 -96z" />
    <glyph glyph-name="uniF49D" unicode="pebble" vert-adv-y="90" 
d="M896 384v-192h-64v-32q0 -13 -9.5 -22.5t-22.5 -9.5h-96v-96q0 -13 -9.5 -22.5t-22.5 -9.5h-320q-13 0 -22.5 9.5t-9.5 22.5v96h-96q-13 0 -22.5 9.5t-9.5 22.5v416h-64v192h64v96q0 13 9.5 22.5t22.5 9.5h96v96q0 13 9.5 22.5t22.5 9.5h320q13 0 22.5 -9.5t9.5 -22.5
v-96h96q13 0 22.5 -9.5t9.5 -22.5v-32h64v-192h-64v-64h64v-128h-64v-64h64zM768 768h-512v-512h512v512z" />
    <glyph glyph-name="uniF49E" unicode="musicthree" vert-adv-y="90" 
d="M896 0h-768q-53 0 -90.5 37.5t-37.5 90.5v768q0 53 37.5 90.5t90.5 37.5h768q53 0 90.5 -37.5t37.5 -90.5v-768q0 -53 -37.5 -90.5t-90.5 -37.5zM631 888q-10 6 -29.5 6.5t-37.5 -5.5q-9 7 -20 7q-13 0 -22.5 -9.5t-9.5 -22.5v-513q-55 33 -128 33q-80 0 -136 -37.5
t-56 -90.5t56 -90.5t135.5 -37.5t136 37.5t56.5 90.5v362q12 22 32 22q33 0 57.5 -11t38 -27t22 -38t11 -40t2 -38t-1 -27t-1.5 -11q-32 0 -32 -32q0 -14 8.5 -23t23.5 -9q13 0 28.5 13t31 37t26 66.5t10.5 94.5q0 37 -41 104t-88.5 120.5t-71.5 68.5z" />
    <glyph glyph-name="uniF49F" unicode="stairsup" vert-adv-y="90" 
d="M992 768h-160v-160q0 -4 -1 -6q-2 -11 -10.5 -18.5t-20.5 -7.5h-160v-160q0 -4 -1 -6q-2 -11 -10.5 -18.5t-20.5 -7.5h-160v-160q0 -4 -1 -6q-2 -11 -10.5 -18.5t-20.5 -7.5h-160v-160q0 -4 -1 -6q-2 -11 -10.5 -18.5t-20.5 -7.5h-192q-13 0 -22.5 9.5t-9.5 22.5
t9.5 22.5t22.5 9.5h160v160q0 4 1 6q2 11 11 18.5t20 7.5h160v160q0 4 1 6q2 11 11 18.5t20 7.5h160v160q0 3 1 6q2 11 11 18.5t20 7.5h160v160q0 4 1 6q2 11 10.5 18.5t20.5 7.5h192q13 0 22.5 -9.5t9.5 -22.5t-9.5 -22.5t-22.5 -9.5zM480 640h-64q-13 0 -22.5 9.5
t-9.5 22.5v131l-283 -282q-10 -9 -23.5 -9t-22.5 9l-46 46q-9 9 -9 22.5t9 22.5l286 284h-135q-13 0 -22.5 9.5t-9.5 22.5v64q0 13 9.5 22.5t22.5 9.5h320q13 0 22.5 -9.5t9.5 -22.5v-320q0 -13 -9.5 -22.5t-22.5 -9.5z" />
    <glyph glyph-name="uniF4A0" unicode="stairsdown" vert-adv-y="90" 
d="M992 512h-320q-13 0 -22.5 9.5t-9.5 22.5v64q0 13 9.5 22.5t22.5 9.5h135l-286 284q-9 9 -9 22.5t9 22.5l46 46q9 9 22.5 9t23.5 -9l283 -282v131q0 13 9.5 22.5t22.5 9.5h64q13 0 22.5 -9.5t9.5 -22.5v-320q0 -13 -9.5 -22.5t-22.5 -9.5zM639 422q1 -2 1 -6v-160h160
q12 0 20.5 -7.5t10.5 -18.5q1 -2 1 -6v-160h160q13 0 22.5 -9.5t9.5 -22.5t-9.5 -22.5t-22.5 -9.5h-192q-12 0 -20.5 7.5t-10.5 18.5q-1 2 -1 6v160h-160q-12 0 -20.5 7.5t-10.5 18.5q-1 2 -1 6v160h-160q-12 0 -20.5 7.5t-10.5 18.5q-1 2 -1 6v160h-160q-12 0 -20.5 7.5
t-10.5 18.5q-1 2 -1 6v160h-160q-13 0 -22.5 9.5t-9.5 22.5t9.5 22.5t22.5 9.5h192q12 0 20.5 -7.5t10.5 -18.5q1 -2 1 -6v-160h160q12 0 20.5 -7.5t10.5 -18.5q1 -2 1 -6v-160h160q12 0 20.5 -7.5t10.5 -18.5z" />
    <glyph glyph-name="uniF4A1" unicode="bookalt" vert-adv-y="90" 
d="M224 832q-13 0 -22.5 9.5t-9.5 22.5t9.5 22.5t22.5 9.5h704q13 0 22.5 -9.5t9.5 -22.5t-9.5 -22.5t-22.5 -9.5h-704zM896 0h-224h-352h-96q-66 0 -113 47t-47 113v704q0 66 47 113t113 47h704q13 0 22.5 -9.5t9.5 -22.5t-9.5 -22.5t-22.5 -9.5h-704q-40 0 -68 -28
t-28 -68t28 -68t68 -28h736v-704q0 -27 -18.5 -45.5t-45.5 -18.5z" />
    <glyph glyph-name="uniF4A2" unicode="programclose" vert-adv-y="90" 
d="M896 0h-768q-53 0 -90.5 37.5t-37.5 90.5v768q0 53 37.5 90.5t90.5 37.5h768q53 0 90.5 -37.5t37.5 -90.5v-768q0 -53 -37.5 -90.5t-90.5 -37.5zM448 960q-27 0 -45.5 -18.5t-18.5 -45t18.5 -45.5t45.5 -19t45.5 19t18.5 45.5t-18.5 45t-45.5 18.5zM640 960
q-27 0 -45.5 -18.5t-18.5 -45t18.5 -45.5t45.5 -19t45.5 19t18.5 45.5t-18.5 45t-45.5 18.5zM832.5 960q-26.5 0 -45.5 -18.5t-19 -45t19 -45.5t45.5 -19t45 19t18.5 45.5t-18.5 45t-45 18.5zM896 704q0 27 -18.5 45.5t-45.5 18.5h-640q-27 0 -45.5 -18.5t-18.5 -45.5v-512
q0 -27 18.5 -45.5t45.5 -18.5h640q27 0 45.5 18.5t18.5 45.5v512zM603 449l155 -154q10 -10 10 -23t-10 -23l-45 -45q-10 -9 -23 -9t-23 9l-155 154l-155 -154q-10 -9 -23 -9t-23 9l-45 45q-10 10 -10 23t10 23l155 154l-156 155q-9 9 -9 22.5t9 22.5l46 46q9 9 22.5 9
t23.5 -9l155 -155l155 155q10 9 23.5 9t22.5 -9l46 -46q9 -9 9 -22.5t-9 -22.5z" />
    <glyph glyph-name="uniF4A3" unicode="programok" vert-adv-y="90" 
d="M896 0h-768q-53 0 -90.5 37.5t-37.5 90.5v768q0 53 37.5 90.5t90.5 37.5h768q53 0 90.5 -37.5t37.5 -90.5v-768q0 -53 -37.5 -90.5t-90.5 -37.5zM447.5 960q-26.5 0 -45 -18.5t-18.5 -45t18.5 -45.5t45.5 -19t45.5 19t18.5 45.5t-19 45t-45.5 18.5zM639.5 960
q-26.5 0 -45 -18.5t-18.5 -45t18.5 -45.5t45 -19t45.5 19t19 45.5t-19 45t-45.5 18.5zM832 960q-27 0 -45.5 -18.5t-18.5 -45t18.5 -45.5t45.5 -19t45.5 19t18.5 45.5t-18.5 45t-45.5 18.5zM896 704q0 27 -19 45.5t-45 18.5h-640q-27 0 -45.5 -18.5t-18.5 -45.5v-512
q0 -27 18.5 -45.5t45.5 -18.5h640q26 0 45 18.5t19 45.5v512zM511 267q-2 -11 -9 -18l-45 -45q-10 -10 -25 -9q-15 -1 -25 9l-45 45q-5 5 -8 11l-153 152q-9 9 -9 22.5t9 22.5l46 46q9 9 22.5 9t22.5 -9l137 -135l302 327q10 9 23.5 9t22.5 -9l46 -46q9 -9 9 -22.5t-9 -22.5
z" />
    <glyph glyph-name="uniF4A4" unicode="splitalt" vert-adv-y="90" 
d="M1006 768l-88 53l-164 -292q78 -91 78 -209q0 -87 -43 -160.5t-116.5 -116.5t-160.5 -43t-160.5 43t-116.5 116.5t-43 160.5q0 118 78 209l-164 292l-88 -53q-5 -3 -12.5 5t-5.5 16l66 218q3 9 10.5 14t16.5 2l215 -50q8 -2 11 -12.5t-2 -13.5l-100 -60l156 -279
q66 32 138.5 32t139.5 -32l156 279l-100 60q-5 3 -2 13.5t11 12.5l215 50q9 3 16.5 -2t10.5 -14l66 -218q2 -8 -5.5 -16t-12.5 -5zM512 512q-79 0 -135.5 -56.5t-56.5 -136t56.5 -135.5t136 -56t135.5 56t56 135.5t-56.5 136t-135.5 56.5z" />
    <glyph glyph-name="uniF4A5" unicode="solarsystem" vert-adv-y="90" 
d="M512 0q-104 0 -199 40.5t-163.5 109t-109 163.5t-40.5 199q0 114 50 219q-50 39 -50 101q0 53 37.5 90.5t90.5 37.5q48 0 85 -33q134 97 299 97q104 0 199 -40.5t163.5 -109t109 -163.5t40.5 -199t-40.5 -199t-109 -163.5t-163.5 -109t-199 -40.5zM512 960
q-145 0 -263 -86q7 -22 7 -42q0 -53 -37.5 -90.5t-90.5 -37.5q-7 0 -19 2q-45 -93 -45 -194q0 -91 35.5 -174t95.5 -143t143 -95.5t174 -35.5t174 35.5t143 95.5t95.5 143t35.5 174t-35.5 174t-95.5 143t-143 95.5t-174 35.5zM805 385q-37 -87 -116.5 -140t-176.5 -53
q-87 0 -160.5 43t-116.5 116.5t-43 160.5t43 160.5t116.5 116.5t160.5 43q116 0 204.5 -74t109.5 -186q31 -9 50.5 -34t19.5 -58q0 -38 -26.5 -65.5t-64.5 -29.5zM512 768q-106 0 -181 -75t-75 -181t75 -181t181 -75q76 0 138 40.5t93 106.5q-39 29 -39 77q0 29 16 53t42 35
q-20 87 -89.5 143.5t-160.5 56.5zM512 384q-53 0 -90.5 37.5t-37.5 90.5t37.5 90.5t90.5 37.5t90.5 -37.5t37.5 -90.5t-37.5 -90.5t-90.5 -37.5z" />
    <glyph glyph-name="uniF4A6" unicode="honeycomb" vert-adv-y="90" 
d="M1024 336v-224l-192 -112l-160 93l-160 -93l-160 93l-160 -93l-192 112v224l192 112v128l-192 112v224l192 113l160 -94l160 94l160 -94l160 94l192 -113v-224l-128 -74v-203zM384 144l128 -80l128 80v160l-110 69l-146 -85v-144zM192 384l-128 -80v-160l128 -80l128 80
v160zM320 880l-128 80l-128 -80v-160l128 -80l128 80v160zM256 592v-160l128 -80l128 80v160l-128 80zM640 880l-128 80l-128 -80v-144l146 -85l110 69v160zM576 592v-160l128 -80l128 80v160l-128 80zM960 720v160l-128 80l-128 -80v-144l146 -85zM850 373l-146 -85v-144
l128 -80l128 80v160z" />
    <glyph glyph-name="uniF4A7" unicode="tools" vert-adv-y="90" 
d="M896 704l64 -576q0 -53 -37.5 -90.5t-90.5 -37.5t-90.5 37.5t-37.5 90.5l64 576q-31 0 -61 36t-48.5 88t-18.5 100q0 21 1 33t8.5 30t22.5 33h28h4v-64q0 -54 37 -91t91 -37t91 37t37 91v64h32q15 -15 22.5 -33t8.5 -30t1 -33q0 -48 -18.5 -100t-48.5 -88t-61 -36z
M832.5 192q-26.5 0 -45.5 -18.5t-19 -45.5t19 -45.5t45.5 -18.5t45 19t18.5 45.5t-18.5 45t-45 18.5zM256 416q0 -40 18.5 -68t45.5 -28v-96v-64q0 -66 -47 -113t-113 -47t-113 47t-47 113v64v96q27 0 45.5 28t18.5 68t-18.5 68t-45.5 28q0 27 19 45.5t45 18.5h64v192
l-64 64l32 192h128l32 -192l-64 -64v-192h64q27 0 45.5 -18.5t18.5 -45.5q-26 0 -45 -28t-19 -68z" />
    <glyph glyph-name="uniF4A8" unicode="xoops" vert-adv-y="90" 
d="M873 589q23 -69 23 -141q0 -91 -35.5 -174t-95.5 -143t-143 -95.5t-174 -35.5t-174 35.5t-143 95.5t-95.5 143t-35.5 174t35.5 174t95.5 143t143 95.5t174 35.5q72 0 141 -23q23 67 81 109t130 42q93 0 158.5 -65.5t65.5 -158.5q0 -72 -42 -130t-109 -81zM712 657
q18 -10 39 -14.5t35 -1.5t14 11q0 16 -17 33t-47 17q-14 0 -38 16.5t-41 32.5l-17 17q0 -26 21.5 -60t50.5 -51zM64 384q0 -50 43.5 -116.5t99.5 -97.5q38 -21 80 -29.5t69.5 -3t27.5 22.5q0 31 -34 63.5t-94 32.5q-57 0 -180 117zM512 800q0 7 1 23q-41 9 -87 9
q-56 0 -110.5 -27t-89 -70t-34.5 -86q0 -59 53 -98t155 -39q41 0 68.5 6.5t42.5 17t25.5 21.5t25.5 22t35 17q-85 84 -85 204zM758 960q-44 0 -81 -29t-37 -62q0 -30 26.5 -49.5t78.5 -19.5q24 0 39 4.5t22.5 11.5t14 13.5t20 11.5t34.5 5q24 0 22 25q-3 35 -44 63
q-40 26 -95 26z" />
    <glyph glyph-name="uniF4A9" unicode="pixie" vert-adv-y="90" 
d="M896 0h-768q-53 0 -90.5 37.5t-37.5 90.5v768q0 53 37.5 90.5t90.5 37.5h768q53 0 90.5 -37.5t37.5 -90.5v-768q0 -53 -37.5 -90.5t-90.5 -37.5zM768 896h-512v-768h192v128h320v640zM448 704h128v-256h-128v256z" />
    <glyph glyph-name="uniF4AA" unicode="dotclear" vert-adv-y="90" 
d="M736 0q-119 0 -203.5 84.5t-84.5 203.5t84.5 203.5t203.5 84.5q87 0 160 -49v-82q-66 67 -160 67q-93 0 -158.5 -65.5t-65.5 -158.5t65.5 -158.5t158.5 -65.5t158.5 65.5t65.5 158.5v544h64v-544q0 -119 -84.5 -203.5t-203.5 -84.5zM419 633q-44 -29 -81 -43t-82 -14
q-54 0 -96 32q-10 -11 -79.5 -44.5t-80.5 -51.5v64q37 43 160 96q71 30 110 47t96 43t87.5 42t63 34.5t46 32.5t13.5 25q-64 -32 -160 -64q-39 -13 -80.5 -31t-108.5 -50.5t-99 -46.5q0 43 10 78t22 50q27 35 74 56t100.5 30.5t108 19t108.5 30.5t89 56q0 -96 -23.5 -165
t-69.5 -121t-128 -105z" />
    <glyph glyph-name="uniF4AB" unicode="impresscms" vert-adv-y="90" 
d="M928 576q-40 0 -68 -18.5t-28 -45.5v-384h-128v352q0 40 -28 68t-68 28t-68 -28t-28 -68v-352h-128v512l64 64h64v-50q55 50 128 50q49 0 91.5 -23t68.5 -63q26 40 68.5 63t91.5 23q32 0 64 -11v-135q-34 18 -96 18zM192 640l-64 -64v72q-57 13 -92.5 46t-35.5 74
q0 53 56 90.5t136 37.5t136 -37.5t56 -90.5t-56.5 -90.5t-135.5 -37.5zM256 576v-448h-128v384l64 64h64z" />
    <glyph glyph-name="uniF4AC" unicode="saurus" vert-adv-y="90" 
d="M864 608l-77 -179l-147 147l-77 -179l-115 115l-103 -154l-121 122l-94 -169q-58 99 -94 203t-36 190q0 61 38 106t95 65.5t123 20.5q102 0 229 -12.5t250 -35t206 -61t83 -83.5q0 -108 -29 -227zM233 375l119 -119l102 154l122 -122l93 163l131 -131l93 163l81 -81
q-46 -146 -110 -210q-41 -41 -135.5 -71.5t-185 -43.5t-159.5 -13q-43 0 -101.5 52.5t-116.5 137.5z" />
    <glyph glyph-name="uniF4AD" unicode="impresspages" vert-adv-y="90" 
d="M832 640q-80 0 -136 56t-56 135.5t56 136t136 56.5t136 -56.5t56 -136t-56 -135.5t-136 -56zM512 320l-192 192l192 192l192 -192zM192.5 640q-79.5 0 -136 56t-56.5 135.5t56 136t136 56.5t136 -56.5t56 -136t-56 -135.5t-135.5 -56zM192.5 384q79.5 0 135.5 -56.5
t56 -136t-56 -135.5t-135.5 -56t-136 56t-56.5 135.5t56.5 136t136 56.5zM832 384q80 0 136 -56.5t56 -136t-56 -135.5t-136 -56t-136 56t-56 136t56 136t136 56z" />
    <glyph glyph-name="uniF4AE" unicode="monstra" vert-adv-y="90" 
d="M960 480q0 -109 -52.5 -202t-141.5 -149q2 -18 2 -33q0 -40 -9.5 -68t-22.5 -28q-15 0 -48.5 23.5t-44.5 52.5q-50 -12 -99 -12t-99 12q-11 -29 -44.5 -52.5t-48.5 -23.5q-13 0 -22.5 28t-9.5 68q0 16 2 33q-89 56 -141.5 149t-52.5 202q0 108 51 200t139 149t194 65v12
q-25 14 -44.5 43.5t-19.5 42.5t28 22.5t68 9.5t68 -9.5t28 -22.5t-19.5 -42.5t-44.5 -43.5v-12q106 -8 194 -65t139 -149t51 -200zM544 128q60 0 94 16t66 48h-160h-160q29 -29 65 -46.5t95 -17.5zM544 704q-93 0 -158.5 -65.5t-65.5 -158.5t65.5 -158.5t158.5 -65.5
t158.5 65.5t65.5 158.5t-65.5 158.5t-158.5 65.5zM544 384q-40 0 -68 28t-28 68t28 68t68 28q21 0 41 -10q-9 -9 -9 -22t9.5 -22.5t22.5 -9.5t22 9q10 -20 10 -41q0 -40 -28 -68t-68 -28z" />
    <glyph glyph-name="uniF4AF" unicode="snews" vert-adv-y="90" 
d="M842.5 492q-52.5 -30 -107.5 -39.5t-95 2.5q10 42 45.5 83t88.5 71q193 110 250 93q-10 -41 -69.5 -110.5t-112 -99.5zM583 640q-12 31 -4.5 78.5t34.5 98.5q97 184 150 207q12 -32 -0.5 -111t-39.5 -129.5t-64.5 -88.5t-75.5 -55zM256 384q106 0 181 -56t75 -135.5
t-75 -136t-181 -56.5t-181 56t-75 136h128q0 -26 37.5 -45t90.5 -19t90.5 19t37.5 45.5t-37.5 45t-90.5 18.5q-106 0 -181 56.5t-75 136t75 135.5t181 56t181 -56t75 -136h-128q0 27 -37.5 45.5t-90.5 18.5t-90.5 -18.5t-37.5 -45t37.5 -45.5t90.5 -19zM391 784
q-12 52 -3.5 130t27.5 110q44 -23 89 -207q12 -52 7 -98t-25 -79q-31 17 -56.5 55t-38.5 89z" />
    <glyph glyph-name="uniF4B0" unicode="jcore" vert-adv-y="90" 
d="M1015 768l-117 -217q4 -17 11 -27t13 -11l6 -1q13 0 22.5 -9.5t9.5 -22.5t-9.5 -22.5t-22.5 -9.5q-2 0 -7 -0.5t-19.5 -4.5t-28.5 -10.5t-33 -21t-35 -34.5l-65 -121q-14 -27 -43 -45.5t-55 -18.5h-604q-26 0 -35 18.5t6 45.5l117 218q-4 16 -11 26t-13 11l-6 1
q-13 0 -22.5 9.5t-9.5 22.5t9.5 22.5t22.5 9.5q3 0 7.5 0.5t18.5 4t28 10t33 21t35 34.5l66 122q14 27 43 45.5t55 18.5h604q26 0 35 -18.5t-6 -45.5zM384 384q-11 -23 -22.5 -37t-25 -19.5t-22.5 -6.5t-26 -1v-64h66q44 0 88 37.5t74 90.5l139 256h-130zM594 768l-34 -64
h130l34 64h-130z" />
    <glyph glyph-name="uniF4B1" unicode="silverstripe" vert-adv-y="90" 
d="M931 228l-227 -228q-3 0 -7.5 1t-15.5 8t-19 19t-15 38.5t-7 62.5q0 18 6.5 35.5t16 29t18.5 20.5t16 14l7 4l83 83q44 45 44 108.5t-44.5 108t-108 44.5t-108.5 -44l-22 -22q14 3 28 3q36 0 62 -7t38 -16t19 -18.5t7 -16.5l1 -6l-163 -163q-92 -93 -223.5 -93t-224 93
t-92.5 224t93 224l227 227q3 0 7.5 -1t15.5 -8t19 -19t15 -38.5t7 -62.5q0 -18 -6.5 -35t-16 -29t-18.5 -21t-16 -14l-7 -4l-83 -83q-44 -45 -44 -108.5t44.5 -108t108 -44.5t108.5 45l22 21q-14 -2 -28 -2q-36 0 -62 6.5t-38 16t-19 18.5t-8 16v7l163 162q92 93 223.5 93
t224 -92.5t92.5 -224t-93 -223.5z" />
    <glyph glyph-name="uniF4B2" unicode="btwoevolution" vert-adv-y="90" 
d="M992 704h-32v-128l-128 128v-448q0 -27 -18.5 -45.5t-45.5 -18.5h-64v-192l-192 192h-256q-27 0 -45.5 18.5t-18.5 45.5v192h-128q-27 0 -45.5 18.5t-18.5 45.5v384q0 27 18.5 45.5t45.5 18.5h384q27 0 45.5 -18.5t18.5 -45.5v-64h128v160q0 13 9.5 22.5t22.5 9.5h320
q13 0 22.5 -9.5t9.5 -22.5v-256q0 -13 -9.5 -22.5t-22.5 -9.5zM448 864q0 13 -9.5 22.5t-22.5 9.5h-320q-13 0 -22.5 -9.5t-9.5 -22.5v-320q0 -13 9.5 -22.5t22.5 -9.5h96v256q0 26 18.5 45t45.5 19h192v32zM960 928q0 13 -9.5 22.5t-22.5 9.5h-192q-13 0 -22.5 -9.5
t-9.5 -22.5v-96h64q26 0 45 -18.5t19 -45.5h96q13 0 22.5 9.5t9.5 22.5v128z" />
    <glyph glyph-name="uniF4B3" unicode="nucleus" vert-adv-y="90" 
d="M544 704l192 320l160 -128l-288 -224zM128 896l160 128l192 -320l-64 -32zM416 544l-352 -229l-64 197l384 96zM576 512l64 -512h-256l64 512h128zM640 608l384 -96l-64 -197l-352 229z" />
    <glyph glyph-name="uniF4B5" unicode="symphony" vert-adv-y="90" 
d="M896 0q-53 0 -90.5 37.5t-37.5 90.5t37.5 90.5t90.5 37.5t90.5 -37.5t37.5 -90.5t-37.5 -90.5t-90.5 -37.5zM288 576q5 -2 16 -6q33 -14 49.5 -20.5t45.5 -19.5t43.5 -22t37 -23.5t34 -28t25.5 -32t20.5 -38.5t11.5 -45t5 -53q0 -124 -83.5 -206t-204.5 -82
q-59 0 -103 11t-77.5 35.5t-57.5 54.5t-50 75l96 80q27 -54 76 -91t116 -37q66 0 113 47t47 113q0 26 -8 47t-18.5 34.5t-34.5 29t-43 24.5t-56 25q-5 2 -16 6q-33 14 -49.5 20.5t-45.5 19.5t-43.5 22t-37 23.5t-34 28t-25.5 32t-20.5 38.5t-11.5 45t-5 53q0 119 84.5 203.5
t203.5 84.5q111 0 192.5 -73.5t93.5 -182.5h-129q-11 55 -55 91.5t-102 36.5q-66 0 -113 -47t-47 -113q0 -25 12.5 -47.5t37 -42.5t49.5 -35.5t61 -34.5z" />
    <glyph glyph-name="uniF4B6" unicode="vanillacms" vert-adv-y="90" 
d="M864 832q-35 0 -85.5 -43t-95 -104.5t-76 -136.5t-31.5 -132q0 -160 128 -416q-70 0 -147.5 30t-147 79t-133.5 115t-110.5 136t-74 143.5t-27.5 136.5q0 61 30 106t73 65.5t89 20.5v-128q0 -78 21 -152t60 -138.5t80.5 -116t94.5 -105.5q-64 142 -64 256q0 76 27.5 161
t70.5 156.5t92 131t97 93.5t81 34q53 0 98.5 -48.5t45.5 -79.5q0 -18 -7.5 -31t-16.5 -19.5t-24.5 -9.5t-24.5 -3.5t-23 -0.5z" />
    <glyph glyph-name="uniF4B7" unicode="bbpress" vert-adv-y="90" 
d="M512 0q-104 0 -199 40.5t-163.5 109t-109 163.5t-40.5 199t40.5 199t109 163.5t163.5 109t199 40.5t199 -40.5t163.5 -109t109 -163.5t40.5 -199t-40.5 -199t-109 -163.5t-163.5 -109t-199 -40.5zM512 960q-91 0 -174 -35.5t-143 -95.5t-95.5 -143t-35.5 -174t35.5 -174
t95.5 -143t143 -95.5t174 -35.5t174 35.5t143 95.5t95.5 143t35.5 174t-35.5 174t-95.5 143t-143 95.5t-174 35.5zM576 576q64 0 64 -96q0 -78 -19 -124q-13 -35 -44.5 -66t-64.5 -34q-21 -2 -44 0.5t-31 8.5l46 179q8 22 12 33.5t14 33.5t18.5 33.5t21.5 21.5t27 10z
M512 128q-146 0 -255 98q57 5 95 30q21 14 40 41l-8 -27q56 -46 109 -45q68 0 115 31q41 27 69 97.5t27 133.5q0 41 -5.5 67t-10 33t-16.5 21q-27 32 -64 32q-17 0 -28.5 -2t-20.5 -9t-14 -12t-15.5 -18.5l-17.5 -22.5l64 192h-128v-32q28 0 39 -28t4 -54l-43 -155
q-1 36 -6.5 59t-10 30t-15.5 20q-27 32 -64 32q-17 0 -28.5 -2t-20.5 -9t-14 -12t-15.5 -19t-17.5 -22l64 192h-94q54 60 128 94t158 34q104 0 192.5 -51.5t140 -140t51.5 -192.5t-51.5 -192.5t-140 -140t-192.5 -51.5zM235 655l-79 -286q-28 70 -28 143q0 123 71 223
q24 -5 33 -31.5t3 -48.5zM320 576q64 0 64 -96q0 -78 -19 -124q-13 -35 -44.5 -66t-64.5 -34q-13 -1 -29 -1q-21 23 -37 48l37 141q8 22 12 33.5t14 33.5t18.5 33.5t21.5 21.5t27 10z" />
    <glyph glyph-name="uniF4B8" unicode="phpbbalt" vert-adv-y="90" 
d="M768 512h-512l-256 192l512 320l512 -320zM768 448l224 160l-96 -416l-192 -192h-64l64 320h-384l64 -320h-64l-192 192l-96 416l224 -160h512z" />
    <glyph glyph-name="uniF4B9" unicode="chyrp" vert-adv-y="90" 
d="M896 0h-768q-53 0 -90.5 37.5t-37.5 90.5v768q0 53 37.5 90.5t90.5 37.5h768q53 0 90.5 -37.5t37.5 -90.5v-768q0 -53 -37.5 -90.5t-90.5 -37.5zM450 647q-37 -34 -70 -91t-51.5 -107.5t-38.5 -98t-34 -62.5q-33 -32 -64.5 -69t-48.5 -60t-15 -25q13 -12 33.5 -1
t50.5 44.5t61.5 72.5t80.5 96t94 102q46 46 88 86.5t62 60.5t42 45q29 26 77 62t51 34q5 -4 -23 -45.5t-91 -117t-142 -157.5q-95 -100 -192 -192q37 9 69 25t63 40.5t54.5 46.5t60.5 58.5t64 60.5q53 49 100 112t76 118.5t50.5 104t29.5 77.5l9 29q-42 -39 -102.5 -69
t-112.5 -48.5t-116.5 -52.5t-114.5 -79z" />
    <glyph glyph-name="uniF4BA" unicode="pivotx" vert-adv-y="90" 
d="M960 663l-113 -35q69 -81 97 -167.5t6 -140.5l-88 36q5 -90 -17 -160.5t-63 -99.5l-69 95q-50 -87 -114 -139t-119 -52v110q-87 -41 -166.5 -45.5t-121.5 28.5l75 110q-102 18 -175.5 62t-91.5 97l112 35q-68 81 -96 167t-7 140l89 -36q-5 90 17 160.5t62 99.5l70 -95
q50 87 114 139t119 52v-110q87 41 166.5 45.5t121.5 -28.5l-75 -109q102 -18 175.5 -62t91.5 -97zM480 768q-106 0 -181 -75t-75 -181t75 -181t181 -75t181 75t75 181t-75 181t-181 75z" />
    <glyph glyph-name="uniF4BB" unicode="pagecookery" vert-adv-y="90" 
d="M512 0q-104 0 -199 40.5t-163.5 109t-109 163.5t-40.5 199t40.5 199t109 163.5t163.5 109t199 40.5t199 -40.5t163.5 -109t109 -163.5t40.5 -199t-40.5 -199t-109 -163.5t-163.5 -109t-199 -40.5zM608 832h-192q-13 0 -22.5 -9.5t-9.5 -22.5t9.5 -22.5t22.5 -9.5h192
q66 0 113 -47t47 -113t-47 -113t-113 -47h-224v-288q0 -13 9.5 -22.5t22.5 -9.5t22.5 9.5t9.5 22.5v224h160q93 0 158.5 65.5t65.5 158.5t-65.5 158.5t-158.5 65.5z" />
    <glyph glyph-name="uniF4BC" unicode="moviereelalt" vert-adv-y="90" 
d="M960 896h-110q81 -72 127.5 -171.5t46.5 -212.5q0 -104 -40.5 -199t-109 -163.5t-163.5 -109t-199 -40.5t-199 40.5t-163.5 109t-109 163.5t-40.5 199t40.5 199t109 163.5t163.5 109t199 40.5h448q26 0 45 -19t19 -45.5t-19 -45t-45 -18.5zM192 640q-53 0 -90.5 -37.5
t-37.5 -90.5t37.5 -90.5t90.5 -37.5t90.5 37.5t37.5 90.5t-37.5 90.5t-90.5 37.5zM512 960q-53 0 -90.5 -37.5t-37.5 -90.5t37.5 -90.5t90.5 -37.5t90.5 37.5t37.5 90.5t-37.5 90.5t-90.5 37.5zM448 512q0 -27 18.5 -45.5t45 -18.5t45.5 18.5t19 45.5t-19 45.5t-45.5 18.5
t-45 -18.5t-18.5 -45.5zM512 320q-53 0 -90.5 -37.5t-37.5 -90.5t37.5 -90.5t90.5 -37.5t90.5 37.5t37.5 90.5t-37.5 90.5t-90.5 37.5zM704 512q0 -53 37.5 -90.5t90.5 -37.5t90.5 37.5t37.5 90.5t-37.5 90.5t-90.5 37.5t-90.5 -37.5t-37.5 -90.5z" />
    <glyph glyph-name="uniF4BD" unicode="cassettealt" vert-adv-y="90" 
d="M960 128h-128v64q0 53 -37.5 90.5t-90.5 37.5h-384q-53 0 -90.5 -37.5t-37.5 -90.5v-64h-128q-27 0 -45.5 19t-18.5 45v640q0 27 18.5 45.5t45.5 18.5h896q26 0 45 -18.5t19 -45.5v-640q0 -26 -19 -45t-45 -19zM960 800q0 13 -9.5 22.5t-22.5 9.5h-832q-13 0 -22.5 -9.5
t-9.5 -22.5v-384q0 -13 9.5 -22.5t22.5 -9.5h832q13 0 22.5 9.5t9.5 22.5v384zM128 768h768v-320h-768v320zM736 512q40 0 68 28t28 68t-28 68t-68 28t-68 -28t-28 -68t28 -68t68 -28zM288 512q40 0 68 28t28 68t-28 68t-68 28t-68 -28t-28 -68t28 -68t68 -28zM288 640
q13 0 22.5 -9.5t9.5 -22.5t-9.5 -22.5t-22.5 -9.5t-22.5 9.5t-9.5 22.5t9.5 22.5t22.5 9.5zM736 640q13 0 22.5 -9.5t9.5 -22.5t-9.5 -22.5t-22.5 -9.5t-22.5 9.5t-9.5 22.5t9.5 22.5t22.5 9.5zM320 256h384q26 0 45 -18.5t19 -45.5v-64h-512v64q0 27 18.5 45.5t45.5 18.5z
" />
    <glyph glyph-name="uniF4BE" unicode="photobucket" vert-adv-y="90" 
d="M960 192h-236q-96 -64 -212 -64t-212 64h-236q-27 0 -45.5 18.5t-18.5 45.5v512q0 26 18.5 45t45.5 19h64v32q0 13 9.5 22.5t22.5 9.5h128q13 0 22.5 -9.5t9.5 -22.5v-21q90 53 192 53q116 0 212 -64h236q27 0 45.5 -19t18.5 -45v-512q0 -27 -18.5 -45.5t-45.5 -18.5z
M64 256h162q-98 110 -98 256t98 256h-162v-512zM512 832q-87 0 -160.5 -43t-116.5 -116.5t-43 -160.5t43 -160.5t116.5 -116.5t160.5 -43t160.5 43t116.5 116.5t43 160.5t-43 160.5t-116.5 116.5t-160.5 43zM960 768h-162q98 -110 98 -256t-98 -256h162v512zM704 512
q0 79 -56 135.5t-136 56.5v64q106 0 181 -75t75 -181h-64z" />
    <glyph glyph-name="uniF4BF" unicode="technorati" vert-adv-y="90" 
d="M706 449q-105 0 -193.5 34.5t-140 93.5t-51.5 128.5t51.5 129t140 93.5t193.5 34q28 0 61 -3q108 -62 176.5 -166.5t80.5 -231.5q-53 -51 -137 -81.5t-181 -30.5zM192 706q0 -105 69 -193t185 -139l-61 -182l321 129q170 0 307 77q-40 -173 -179.5 -285.5t-320.5 -112.5
q-104 0 -199 40.5t-164 109.5t-109.5 164t-40.5 199q0 181 112.5 320.5t284.5 179.5q-95 -54 -150 -134.5t-55 -172.5z" />
    <glyph glyph-name="uniF4C0" unicode="theverge" vert-adv-y="90" 
d="M576 64h-128l-448 768l64 128h896l64 -128zM320 768l192 -320l192 320h-384z" />
    <glyph glyph-name="uniF4C1" unicode="stacks" vert-adv-y="90" 
d="M960 0h-512q-27 0 -45.5 18.5t-18.5 45.5v64h-64q-27 0 -45.5 19t-18.5 45v64h-64q-27 0 -45.5 19t-18.5 45v64h-64q-27 0 -45.5 19t-18.5 45v512q0 27 18.5 45.5t45.5 18.5h512q27 0 45.5 -18.5t18.5 -45.5v-64h64q27 0 45.5 -18.5t18.5 -45.5v-64h64q26 0 45 -18.5
t19 -45.5v-64h64q27 0 45.5 -18.5t18.5 -45.5v-512q0 -26 -18.5 -45t-45.5 -19zM576 960h-512v-512h64v384q0 27 18.5 45.5t45.5 18.5h384v64zM704 832h-512v-512h64v384q0 27 18.5 45.5t45.5 18.5h384v64zM832 704h-512v-512h64v384q0 27 18.5 45.5t45.5 18.5h384v64z
M960 576h-512v-512h512v512z" />
    <glyph glyph-name="uniF4C2" unicode="dotlist" vert-adv-y="90" 
d="M960 448h-512q-27 0 -45.5 19t-18.5 45.5t18.5 45t45.5 18.5h512q27 0 45.5 -18.5t18.5 -45t-18.5 -45.5t-45.5 -19zM960 832h-512q-27 0 -45.5 19t-18.5 45.5t18.5 45t45.5 18.5h512q27 0 45.5 -18.5t18.5 -45t-18.5 -45.5t-45.5 -19zM128 0q-53 0 -90.5 37.5
t-37.5 90.5t37.5 90.5t90.5 37.5t90.5 -37.5t37.5 -90.5t-37.5 -90.5t-90.5 -37.5zM128 384q-53 0 -90.5 37.5t-37.5 90.5t37.5 90.5t90.5 37.5t90.5 -37.5t37.5 -90.5t-37.5 -90.5t-90.5 -37.5zM128 768q-53 0 -90.5 37.5t-37.5 90.5t37.5 90.5t90.5 37.5t90.5 -37.5
t37.5 -90.5t-37.5 -90.5t-90.5 -37.5zM448 192h512q27 0 45.5 -18.5t18.5 -45.5t-18.5 -45.5t-45.5 -18.5h-512q-27 0 -45.5 18.5t-18.5 45.5t18.5 45.5t45.5 18.5z" />
    <glyph glyph-name="uniF4C3" unicode="numberlist" vert-adv-y="90" 
d="M960 448h-512q-26 0 -45 18.5t-19 45.5t19 45.5t45 18.5h512q27 0 45.5 -18.5t18.5 -45.5t-18.5 -45.5t-45.5 -18.5zM960 832h-512q-26 0 -45 18.5t-19 45t19 45.5t45 19h512q27 0 45.5 -19t18.5 -45.5t-18.5 -45t-45.5 -18.5zM96 0h-64q-13 0 -22.5 9.5t-9.5 22.5
q0 14 10 23q-3 7 -4 9h26h64q13 0 22.5 9.5t9.5 22.5t-9.5 22.5t-22.5 9.5l-1 1q-14 -2 -23.5 7.5t-7.5 23.5v0q1 10 8 16l15 16h-55q-13 0 -22.5 9.5t-9.5 22.5t9.5 22.5t22.5 9.5h128q13 0 22.5 -9.5t9.5 -22.5q0 -11 -6.5 -19.5t-17.5 -11.5l-19 -19q43 -44 43 -78
q0 -40 -28 -68t-68 -28zM192 416q0 -13 -9.5 -22.5t-22.5 -9.5h-128q-13 0 -22.5 9.5t-9.5 22.5q0 7 9.5 16.5t27.5 24t27 23.5q11 11 28.5 24.5t27 22t9.5 14.5q0 14 -10 24.5t-23 10.5h-64q-32 0 -32 32q0 13 9.5 22.5t22.5 9.5h64q40 0 68 -28t28 -68q0 -23 -15 -45.5
t-45 -50.5h28q13 0 22.5 -9.5t9.5 -22.5zM160 768h-128q-13 0 -22.5 9.5t-9.5 22.5t9.5 22.5t22.5 9.5h32v128h-32q-13 0 -22.5 9.5t-9.5 22.5t9.5 22.5t22.5 9.5h64q13 0 22.5 -9.5t9.5 -22.5v-160h32q13 0 22.5 -9.5t9.5 -22.5t-9.5 -22.5t-22.5 -9.5zM448 192h512
q27 0 45.5 -19t18.5 -45t-18.5 -45t-45.5 -19h-512q-26 0 -45 18.5t-19 45.5t19 45.5t45 18.5z" />
    <glyph glyph-name="uniF4C4" unicode="indentleftalt" vert-adv-y="90" 
d="M904 384h-336q-50 0 -85 37.5t-35 90.5t35 90.5t85 37.5h336q50 0 85 -37.5t35 -90.5t-35 -90.5t-85 -37.5zM904 768h-656q-50 0 -85 37.5t-35 90.5t35 90.5t85 37.5h656q50 0 85 -37.5t35 -90.5t-35 -90.5t-85 -37.5zM192 698v-122h160q13 0 22.5 -9.5t9.5 -22.5v-64
q0 -13 -9.5 -22.5t-22.5 -9.5h-160v-121q-7 -7 -15.5 -7t-15.5 7l-155 168q-6 7 -6 17.5t6 17.5l155 168q7 7 15.5 7t15.5 -7zM248 256h656q50 0 85 -37.5t35 -90.5t-35 -90.5t-85 -37.5h-656q-50 0 -85 37.5t-35 90.5t35 90.5t85 37.5z" />
    <glyph glyph-name="uniF4C5" unicode="indentrightalt" vert-adv-y="90" 
d="M904 384h-336q-50 0 -85 37.5t-35 90.5t35 90.5t85 37.5h336q50 0 85 -37.5t35 -90.5t-35 -90.5t-85 -37.5zM904 768h-656q-50 0 -85 37.5t-35 90.5t35 90.5t85 37.5h656q50 0 85 -37.5t35 -90.5t-35 -90.5t-85 -37.5zM192 697q7 8 15.5 8t15.5 -8l155 -167q6 -8 6 -18
t-6 -17l-155 -168q-7 -7 -15.5 -7t-15.5 7v121h-160q-13 0 -22.5 9.5t-9.5 22.5v64q0 13 9.5 22.5t22.5 9.5h160v121zM248 256h656q50 0 85 -37.5t35 -90.5t-35 -90.5t-85 -37.5h-656q-50 0 -85 37.5t-35 90.5t35 90.5t85 37.5z" />
    <glyph glyph-name="uniF4C6" unicode="fblike" vert-adv-y="90" 
d="M928 0h-352l-64 64h-192v-64h-320v576h320v-64h64l96 96l160 352h192v-160l-64 -96v-64h160l96 -64v-512zM256 512h-192v-448h192v448zM960 533l-64 43h-128h-64v64v96l64 96v64h-79l-145 -320l-128 -128h-96v-320h224l64 -64h288l64 43v426z" />
    <glyph glyph-name="uniF4C7" unicode="fbdislike" vert-adv-y="90" 
d="M928 960h-352l-64 -64h-192v64h-320v-576h320v64h64l96 -96l160 -352h192v160l-64 96v64h160l96 64v512zM256 448h-192v448h192v-448zM960 427l-64 -43h-128h-64v-64v-96l64 -96v-64h-79l-145 320l-128 128h-96v320h224l64 64h288l64 -43v-426z" />
    <glyph glyph-name="uniF4C8" unicode="sale" vert-adv-y="90" 
d="M896 512l128 -128l-160 -64l32 -192l-192 32l-64 -160l-128 128l-128 -128l-64 160l-192 -32l32 192l-160 64l128 128l-128 128l160 64l-32 192l192 -32l64 160l128 -128l128 128l64 -160l192 32l-32 -192l160 -64zM352 768q-40 0 -68 -37.5t-28 -90.5t28 -90.5t68 -37.5
t68 37.5t28 90.5t-28 90.5t-68 37.5zM672 768h-32q-4 0 -7.5 -1.5t-5.5 -2.5t-5.5 -5.5t-4.5 -6t-4.5 -8t-4.5 -8.5l-283 -448q-7 -12 3 -22t24 -10h32q4 0 6.5 0.5t5.5 2.5t4.5 3.5t4 5.5t3.5 6t4 7t4 7l283 448q7 12 -3 22t-24 10zM672 512q-40 0 -68 -37.5t-28 -90.5
t28 -90.5t68 -37.5t68 37.5t28 90.5t-28 90.5t-68 37.5zM672 320q-13 0 -22.5 19t-9.5 45.5t9.5 45t22.5 18.5t22.5 -18.5t9.5 -45t-9.5 -45.5t-22.5 -19zM352 576q-13 0 -22.5 19t-9.5 45.5t9.5 45t22.5 18.5t22.5 -18.5t9.5 -45t-9.5 -45.5t-22.5 -19z" />
    <glyph glyph-name="uniF4C9" unicode="sharetronix" vert-adv-y="90" 
d="M512 896q-87 0 -160.5 -34.5t-116.5 -93t-43 -128.5q0 -63 50.5 -122.5t133 -96.5t168.5 -37q13 0 22.5 -9.5t9.5 -22.5t-9.5 -22.5t-22.5 -9.5q-105 0 -201 47t-155.5 129t-59.5 176q0 96 51.5 177t140 128t192.5 47q108 0 223 -45.5t161 -114.5l-128 -96
q-35 59 -101.5 93.5t-154.5 34.5zM512 128q87 0 160.5 34.5t116.5 93t43 128.5q0 63 -50.5 122.5t-133 96.5t-168.5 37q-13 0 -22.5 9.5t-9.5 22.5t9.5 22.5t22.5 9.5q105 0 201 -47t155.5 -129t59.5 -176q0 -96 -51.5 -177t-140 -128t-192.5 -47q-108 0 -223 45.5
t-161 114.5l128 96q35 -59 101.5 -93.5t154.5 -34.5z" />
    <glyph glyph-name="uniF4CA" unicode="rouble" vert-adv-y="90" 
d="M575 384h-192v-64h192q27 0 45.5 -19t18.5 -45.5t-18.5 -45t-45.5 -18.5h-192v-128q0 -27 -18.5 -45.5t-45 -18.5t-45 18.5t-18.5 45.5v128h-64q-27 0 -45.5 18.5t-18.5 45t18.5 45.5t45.5 19h64v64h-64q-27 0 -45.5 18.5t-18.5 45t18.5 45.5t45.5 19h64v448
q0 26 18.5 45t44.5 19h256q87 0 161 -43t116.5 -116.5t42.5 -160.5t-42.5 -160.5t-116.5 -116.5t-161 -43zM575 896h-192v-384h192q80 0 136 56.5t56 136t-56 135.5t-136 56z" />
    <glyph glyph-name="uniF4CB" unicode="markerdown" vert-adv-y="90" 
d="M635 276l-123 -276l-123 276q-115 39 -188 139t-73 225q0 104 51.5 192.5t140 140t192.5 51.5t192.5 -51.5t140 -140t51.5 -192.5q0 -125 -73 -225t-188 -139zM512 896q-106 0 -181 -75t-75 -181t75 -181t181 -75t181 75t75 181t-75 181t-181 75z" />
    <glyph glyph-name="uniF4CC" unicode="markerup" vert-adv-y="90" 
d="M512 0q-104 0 -192.5 51.5t-140 140t-51.5 192.5q0 125 73 225t188 139l123 276l123 -276q115 -39 188 -139t73 -225q0 -104 -51.5 -192.5t-140 -140t-192.5 -51.5zM512 640q-106 0 -181 -75t-75 -181t75 -181t181 -75t181 75t75 181t-75 181t-181 75z" />
    <glyph glyph-name="uniF4CD" unicode="markerleft" vert-adv-y="90" 
d="M640 128q-125 0 -225 73t-139 188l-276 123l276 123q39 115 139 188t225 73q104 0 192.5 -51.5t140 -140t51.5 -192.5t-51.5 -192.5t-140 -140t-192.5 -51.5zM640 768q-106 0 -181 -75t-75 -181t75 -181t181 -75t181 75t75 181t-75 181t-181 75z" />
    <glyph glyph-name="uniF4CE" unicode="markerright" vert-adv-y="90" 
d="M748 389q-39 -115 -139 -188t-225 -73q-104 0 -192.5 51.5t-140 140t-51.5 192.5t51.5 192.5t140 140t192.5 51.5q125 0 225 -73t139 -188l276 -123zM384 768q-106 0 -181 -75t-75 -181t75 -181t181 -75t181 75t75 181t-75 181t-181 75z" />
    <glyph glyph-name="uniF4CF" unicode="bookmarkalt" vert-adv-y="90" 
d="M832 0l-320 224l-320 -224q-27 0 -45.5 18.5t-18.5 45.5v832q0 53 37.5 90.5t90.5 37.5h512q53 0 90.5 -37.5t37.5 -90.5v-832q0 -26 -19 -45t-45 -19z" />
    <glyph glyph-name="uniF4D0" unicode="calendarthree" vert-adv-y="90" 
d="M832 0h-704q-53 0 -90.5 37.5t-37.5 90.5v640q0 53 37.5 90.5t90.5 37.5v64q0 26 18.5 45t45 19t45.5 -19t19 -45v-64h64v64q0 26 18.5 45t45 19t45.5 -19t19 -45v-64h64v64q0 26 18.5 45t45 19t45.5 -19t19 -45v-64h64v64q0 26 18.5 45t45 19t45.5 -19t19 -45v-64
q53 0 90.5 -37.5t37.5 -90.5v-640q0 -53 -37.5 -90.5t-90.5 -37.5zM896 768q0 26 -19 45t-45 19h-704q-27 0 -45.5 -19t-18.5 -45v-640q0 -27 18.5 -45.5t45.5 -18.5h704q26 0 45 18.5t19 45.5v640zM800 384h-64q-13 0 -22.5 9.5t-9.5 22.5v64q0 13 9.5 22.5t22.5 9.5h64
q13 0 22.5 -9.5t9.5 -22.5v-64q0 -13 -9.5 -22.5t-22.5 -9.5zM800 576h-64q-13 0 -22.5 9.5t-9.5 22.5v64q0 13 9.5 22.5t22.5 9.5h64q13 0 22.5 -9.5t9.5 -22.5v-64q0 -13 -9.5 -22.5t-22.5 -9.5zM608 192h-64q-13 0 -22.5 9.5t-9.5 22.5v64q0 13 9.5 22.5t22.5 9.5h64
q13 0 22.5 -9.5t9.5 -22.5v-64q0 -13 -9.5 -22.5t-22.5 -9.5zM608 384h-64q-13 0 -22.5 9.5t-9.5 22.5v64q0 13 9.5 22.5t22.5 9.5h64q13 0 22.5 -9.5t9.5 -22.5v-64q0 -13 -9.5 -22.5t-22.5 -9.5zM608 576h-64q-13 0 -22.5 9.5t-9.5 22.5v64q0 13 9.5 22.5t22.5 9.5h64
q13 0 22.5 -9.5t9.5 -22.5v-64q0 -13 -9.5 -22.5t-22.5 -9.5zM416 192h-64q-13 0 -22.5 9.5t-9.5 22.5v64q0 13 9.5 22.5t22.5 9.5h64q13 0 22.5 -9.5t9.5 -22.5v-64q0 -13 -9.5 -22.5t-22.5 -9.5zM416 384h-64q-13 0 -22.5 9.5t-9.5 22.5v64q0 13 9.5 22.5t22.5 9.5h64
q13 0 22.5 -9.5t9.5 -22.5v-64q0 -13 -9.5 -22.5t-22.5 -9.5zM416 576h-64q-13 0 -22.5 9.5t-9.5 22.5v64q0 13 9.5 22.5t22.5 9.5h64q13 0 22.5 -9.5t9.5 -22.5v-64q0 -13 -9.5 -22.5t-22.5 -9.5zM224 192h-64q-13 0 -22.5 9.5t-9.5 22.5v64q0 13 9.5 22.5t22.5 9.5h64
q13 0 22.5 -9.5t9.5 -22.5v-64q0 -13 -9.5 -22.5t-22.5 -9.5zM224 384h-64q-13 0 -22.5 9.5t-9.5 22.5v64q0 13 9.5 22.5t22.5 9.5h64q13 0 22.5 -9.5t9.5 -22.5v-64q0 -13 -9.5 -22.5t-22.5 -9.5z" />
    <glyph glyph-name="uniF4D1" unicode="wineglass" vert-adv-y="90" 
d="M901 447q-99 -99 -227.5 -122t-224.5 39l-171 -171l88 -88q18 -18 18 -43.5t-18 -43.5t-43.5 -18t-43.5 18l-261 260q-18 18 -18 43.5t18 43.5t43.5 18t43.5 -18l88 -88l171 171q-61 96 -38.5 224.5t121.5 227.5q104 103 240 123q59 -58 115 -114t120 -120.5t102 -102.5
q-20 -136 -123 -239zM674 955q-95 -23 -169 -97q-47 -47 -74 -104t-31 -115h545q8 22 11 34z" />
    <glyph glyph-name="uniF4D2" unicode="slidersoff" vert-adv-y="90" 
d="M960 448h-640v128h640q26 0 45 -19t19 -45t-19 -45t-45 -19zM960 832h-640v128h640q26 0 45 -19t19 -45.5t-19 -45t-45 -18.5zM224 0h-192q-13 0 -22.5 9.5t-9.5 22.5v192q0 13 9.5 22.5t22.5 9.5h192q13 0 22.5 -9.5t9.5 -22.5v-192q0 -13 -9.5 -22.5t-22.5 -9.5z
M224 384h-192q-13 0 -22.5 9.5t-9.5 22.5v192q0 13 9.5 22.5t22.5 9.5h192q13 0 22.5 -9.5t9.5 -22.5v-192q0 -13 -9.5 -22.5t-22.5 -9.5zM224 768h-192q-13 0 -22.5 9.5t-9.5 22.5v192q0 13 9.5 22.5t22.5 9.5h192q13 0 22.5 -9.5t9.5 -22.5v-192q0 -13 -9.5 -22.5
t-22.5 -9.5zM1024 128q0 -26 -19 -45t-45 -19h-640v128h640q26 0 45 -19t19 -45z" />
    <glyph glyph-name="uniF4D3" unicode="slidersmiddle" vert-adv-y="90" 
d="M960 448h-256v128h256q27 0 45.5 -18.5t18.5 -45t-18.5 -45.5t-45.5 -19zM960 832h-256v128h256q27 0 45.5 -18.5t18.5 -45t-18.5 -45.5t-45.5 -19zM608 0h-192q-13 0 -22.5 9.5t-9.5 22.5v192q0 13 9.5 22.5t22.5 9.5h192q13 0 22.5 -9.5t9.5 -22.5v-192
q0 -13 -9.5 -22.5t-22.5 -9.5zM608 384h-192q-13 0 -22.5 9.5t-9.5 22.5v192q0 13 9.5 22.5t22.5 9.5h192q13 0 22.5 -9.5t9.5 -22.5v-192q0 -13 -9.5 -22.5t-22.5 -9.5zM608 768h-192q-13 0 -22.5 9.5t-9.5 22.5v192q0 13 9.5 22.5t22.5 9.5h192q13 0 22.5 -9.5t9.5 -22.5
v-192q0 -13 -9.5 -22.5t-22.5 -9.5zM0 128.5q0 26.5 18.5 45t45.5 18.5h256v-128h-256q-27 0 -45.5 19t-18.5 45.5zM0 512.5q0 26.5 18.5 45t45.5 18.5h256v-128h-256q-27 0 -45.5 19t-18.5 45.5zM0 896.5q0 26.5 18.5 45t45.5 18.5h256v-128h-256q-27 0 -45.5 19
t-18.5 45.5zM1024 128.5q0 -26.5 -18.5 -45.5t-45.5 -19h-256v128h256q27 0 45.5 -18.5t18.5 -45z" />
    <glyph glyph-name="uniF4D4" unicode="slidersfull" vert-adv-y="90" 
d="M992 0h-192q-13 0 -22.5 9.5t-9.5 22.5v192q0 13 9.5 22.5t22.5 9.5h192q13 0 22.5 -9.5t9.5 -22.5v-192q0 -13 -9.5 -22.5t-22.5 -9.5zM992 384h-192q-13 0 -22.5 9.5t-9.5 22.5v192q0 13 9.5 22.5t22.5 9.5h192q13 0 22.5 -9.5t9.5 -22.5v-192q0 -13 -9.5 -22.5
t-22.5 -9.5zM992 768h-192q-13 0 -22.5 9.5t-9.5 22.5v192q0 13 9.5 22.5t22.5 9.5h192q13 0 22.5 -9.5t9.5 -22.5v-192q0 -13 -9.5 -22.5t-22.5 -9.5zM0 128q0 27 18.5 45.5t45.5 18.5h640v-128h-640q-27 0 -45.5 18.5t-18.5 45.5zM0 512q0 27 18.5 45.5t45.5 18.5h640
v-128h-640q-27 0 -45.5 18.5t-18.5 45.5zM0 896q0 27 18.5 45.5t45.5 18.5h640v-128h-640q-27 0 -45.5 18.5t-18.5 45.5z" />
    <glyph glyph-name="uniF4D5" unicode="slidersdesc" vert-adv-y="90" 
d="M960 448h-256v128h256q27 0 45.5 -19t18.5 -45.5t-18.5 -45t-45.5 -18.5zM992 768h-192q-13 0 -22.5 9.5t-9.5 22.5v192q0 13 9.5 22.5t22.5 9.5h192q13 0 22.5 -9.5t9.5 -22.5v-192q0 -13 -9.5 -22.5t-22.5 -9.5zM0 895.5q0 26.5 19 45.5t45 19h640v-128h-640
q-26 0 -45 18.5t-19 45zM64 576h256v-128h-256q-26 0 -45 18.5t-19 45t19 45.5t45 19zM32 256h192q13 0 22.5 -9.5t9.5 -22.5v-192q0 -13 -9.5 -22.5t-22.5 -9.5h-192q-13 0 -22.5 9.5t-9.5 22.5v192q0 13 9.5 22.5t22.5 9.5zM416 384q-13 0 -22.5 9.5t-9.5 22.5v192
q0 13 9.5 22.5t22.5 9.5h192q13 0 22.5 -9.5t9.5 -22.5v-192q0 -13 -9.5 -22.5t-22.5 -9.5h-192zM1024 127.5q0 -26.5 -18.5 -45t-45.5 -18.5h-640v128h640q27 0 45.5 -19t18.5 -45.5z" />
    <glyph glyph-name="uniF4D6" unicode="sliderasc" vert-adv-y="90" 
d="M992 0h-192q-13 0 -22.5 9.5t-9.5 22.5v192q0 13 9.5 22.5t22.5 9.5h192q13 0 22.5 -9.5t9.5 -22.5v-192q0 -13 -9.5 -22.5t-22.5 -9.5zM960 448h-256v128h256q27 0 45.5 -18.5t18.5 -45t-18.5 -45.5t-45.5 -19zM960 832h-640v128h640q27 0 45.5 -18.5t18.5 -45.5
t-18.5 -45.5t-45.5 -18.5zM224 768h-192q-13 0 -22.5 9.5t-9.5 22.5v192q0 13 9.5 22.5t22.5 9.5h192q13 0 22.5 -9.5t9.5 -22.5v-192q0 -13 -9.5 -22.5t-22.5 -9.5zM64 576h256v-128h-256q-26 0 -45 19t-19 45.5t19 45t45 18.5zM416 384q-13 0 -22.5 9.5t-9.5 22.5v192
q0 13 9.5 22.5t22.5 9.5h192q13 0 22.5 -9.5t9.5 -22.5v-192q0 -13 -9.5 -22.5t-22.5 -9.5h-192zM64 192h640v-128h-640q-26 0 -45 19t-19 45.5t19 45t45 18.5z" />
    <glyph glyph-name="uniF4D7" unicode="slideronefull" vert-adv-y="90" 
d="M960 448h-640v128h640q27 0 45.5 -19t18.5 -45.5t-18.5 -45t-45.5 -18.5zM992 768h-192q-13 0 -22.5 9.5t-9.5 22.5v192q0 13 9.5 22.5t22.5 9.5h192q13 0 22.5 -9.5t9.5 -22.5v-192q0 -13 -9.5 -22.5t-22.5 -9.5zM0 895.5q0 26.5 19 45.5t45 19h640v-128h-640
q-26 0 -45 18.5t-19 45zM32 640h192q13 0 22.5 -9.5t9.5 -22.5v-192q0 -13 -9.5 -22.5t-22.5 -9.5h-192q-13 0 -22.5 9.5t-9.5 22.5v192q0 13 9.5 22.5t22.5 9.5zM32 256h192q13 0 22.5 -9.5t9.5 -22.5v-192q0 -13 -9.5 -22.5t-22.5 -9.5h-192q-13 0 -22.5 9.5t-9.5 22.5
v192q0 13 9.5 22.5t22.5 9.5zM1024 127.5q0 -26.5 -18.5 -45t-45.5 -18.5h-640v128h640q27 0 45.5 -19t18.5 -45.5z" />
    <glyph glyph-name="uniF4D8" unicode="slidertwofull" vert-adv-y="90" 
d="M992 384h-192q-13 0 -22.5 9.5t-9.5 22.5v192q0 13 9.5 22.5t22.5 9.5h192q13 0 22.5 -9.5t9.5 -22.5v-192q0 -13 -9.5 -22.5t-22.5 -9.5zM960 832h-640v128h640q27 0 45.5 -19t18.5 -45.5t-18.5 -45t-45.5 -18.5zM224 768h-192q-13 0 -22.5 9.5t-9.5 22.5v192
q0 13 9.5 22.5t22.5 9.5h192q13 0 22.5 -9.5t9.5 -22.5v-192q0 -13 -9.5 -22.5t-22.5 -9.5zM64 576h640v-128h-640q-26 0 -45 18.5t-19 45t19 45.5t45 19zM32 256h192q13 0 22.5 -9.5t9.5 -22.5v-192q0 -13 -9.5 -22.5t-22.5 -9.5h-192q-13 0 -22.5 9.5t-9.5 22.5v192
q0 13 9.5 22.5t22.5 9.5zM1024 127.5q0 -26.5 -18.5 -45t-45.5 -18.5h-640v128h640q27 0 45.5 -19t18.5 -45.5z" />
    <glyph glyph-name="uniF4D9" unicode="sliderthreefull" vert-adv-y="90" 
d="M992 0h-192q-13 0 -22.5 9.5t-9.5 22.5v192q0 13 9.5 22.5t22.5 9.5h192q13 0 22.5 -9.5t9.5 -22.5v-192q0 -13 -9.5 -22.5t-22.5 -9.5zM960 448h-640v128h640q27 0 45.5 -18.5t18.5 -45t-18.5 -45.5t-45.5 -19zM960 832h-640v128h640q27 0 45.5 -18.5t18.5 -45.5
t-18.5 -45.5t-45.5 -18.5zM224 384h-192q-13 0 -22.5 9.5t-9.5 22.5v192q0 13 9.5 22.5t22.5 9.5h192q13 0 22.5 -9.5t9.5 -22.5v-192q0 -13 -9.5 -22.5t-22.5 -9.5zM224 768h-192q-13 0 -22.5 9.5t-9.5 22.5v192q0 13 9.5 22.5t22.5 9.5h192q13 0 22.5 -9.5t9.5 -22.5v-192
q0 -13 -9.5 -22.5t-22.5 -9.5zM64 192h640v-128h-640q-26 0 -45 19t-19 45.5t19 45t45 18.5z" />
    <glyph glyph-name="uniF4DA" unicode="noborders" vert-adv-y="90" 
d="M896 0v64h64v-64h-64zM896 192h64v-64h-64v64zM896 320h64v-64h-64v64zM896 448h64v-64h-64v64zM832 512h64v-64h-64v64zM960 576v-64h-64v64h64zM896 704h64v-64h-64v64zM896 832h64v-64h-64v64zM896 960h64v-64h-64v64zM768 960h64v-64h-64v64zM768 448h-64v64h64v-64z
M640 960h64v-64h-64v64zM640 448h-64v64h64v-64zM448 832v64h64v-64h-64zM384 960h64v-64h-64v64zM512 960h64v-64h-64v64zM384 448h-64v64h64v-64zM256 960h64v-64h-64v64zM256 448h-64v64h64v-64zM128 960h64v-64h-64v64zM128 448h-64v64h64v-64zM0 384v64h64v-64h-64z
M0 576h64v-64h-64v64zM0 704h64v-64h-64v64zM0 832h64v-64h-64v64zM0 960h64v-64h-64v64zM64 256h-64v64h64v-64zM64 128h-64v64h64v-64zM64 0h-64v64h64v-64zM192 0h-64v64h64v-64zM320 0h-64v64h64v-64zM512 192h-64v64h64v-64zM512 320h-64v64h64v-64zM512 448h-64v64h64
v-64zM448 768h64v-64h-64v64zM512 576h-64v64h64v-64zM512 128v-64h-64v64h64zM576 0h-64v64h64v-64zM448 0h-64v64h64v-64zM704 0h-64v64h64v-64zM832 0h-64v64h64v-64z" />
    <glyph glyph-name="uniF4DB" unicode="bottomborder" vert-adv-y="90" 
d="M0 0v64h64h384v64h64v-64h384h64v-64h-960zM896 192h64v-64h-64v64zM896 320h64v-64h-64v64zM896 448h64v-64h-64v64zM832 512h64v-64h-64v64zM960 576v-64h-64v64h64zM896 704h64v-64h-64v64zM896 832h64v-64h-64v64zM896 960h64v-64h-64v64zM768 448h-64v64h64v-64z
M768 960h64v-64h-64v64zM640 448h-64v64h64v-64zM640 960h64v-64h-64v64zM448 768h64v-64h-64v64zM448 640h64v-64h-64v64zM448 512h64v-64h-64v64zM512 192h-64v64h64v-64zM448 384h64v-64h-64v64zM384 448h-64v64h64v-64zM448 832v64h64v-64h-64zM384 960h64v-64h-64v64z
M512 960h64v-64h-64v64zM256 960h64v-64h-64v64zM256 448h-64v64h64v-64zM128 960h64v-64h-64v64zM128 448h-64v64h64v-64zM0 384v64h64v-64h-64zM0 576h64v-64h-64v64zM0 704h64v-64h-64v64zM0 832h64v-64h-64v64zM0 960h64v-64h-64v64zM64 256h-64v64h64v-64zM64 128h-64
v64h64v-64z" />
    <glyph glyph-name="uniF4DC" unicode="topborder" vert-adv-y="90" 
d="M896 0v64h64v-64h-64zM896 192h64v-64h-64v64zM896 320h64v-64h-64v64zM896 448h64v-64h-64v64zM832 512h64v-64h-64v64zM960 576v-64h-64v64h64zM896 704h64v-64h-64v64zM896 832h64v-64h-64v64zM512 896v-64h-64v64h-384h-64v64h960v-64h-64h-384zM64 768h-64v64h64
v-64zM64 640h-64v64h64v-64zM64 512h-64v64h64v-64zM128 448h-64v64h64v-64zM0 384v64h64v-64h-64zM64 256h-64v64h64v-64zM64 128h-64v64h64v-64zM64 0h-64v64h64v-64zM192 0h-64v64h64v-64zM256 448h-64v64h64v-64zM320 512h64v-64h-64v64zM320 0h-64v64h64v-64zM512 192
h-64v64h64v-64zM512 320h-64v64h64v-64zM512 448h-64v64h64v-64zM448 768h64v-64h-64v64zM512 576h-64v64h64v-64zM576 512h64v-64h-64v64zM512 128v-64h-64v64h64zM576 0h-64v64h64v-64zM448 0h-64v64h64v-64zM704 512h64v-64h-64v64zM704 0h-64v64h64v-64zM832 0h-64v64
h64v-64z" />
    <glyph glyph-name="uniF4DD" unicode="leftborder" vert-adv-y="90" 
d="M896 0v64h64v-64h-64zM896 192h64v-64h-64v64zM896 320h64v-64h-64v64zM896 448h64v-64h-64v64zM832 512h64v-64h-64v64zM960 576v-64h-64v64h64zM896 704h64v-64h-64v64zM896 832h64v-64h-64v64zM896 960h64v-64h-64v64zM768 960h64v-64h-64v64zM768 448h-64v64h64v-64z
M640 960h64v-64h-64v64zM640 448h-64v64h64v-64zM448 832v64h64v-64h-64zM384 960h64v-64h-64v64zM512 960h64v-64h-64v64zM384 448h-64v64h64v-64zM256 960h64v-64h-64v64zM256 448h-64v64h64v-64zM128 960h64v-64h-64v64zM128 448h-64v-384v-64h-64v960h64v-64v-384h64
v-64zM192 0h-64v64h64v-64zM320 0h-64v64h64v-64zM512 192h-64v64h64v-64zM512 320h-64v64h64v-64zM512 448h-64v64h64v-64zM448 768h64v-64h-64v64zM512 576h-64v64h64v-64zM512 128v-64h-64v64h64zM576 0h-64v64h64v-64zM448 0h-64v64h64v-64zM704 0h-64v64h64v-64zM832 0
h-64v64h64v-64z" />
    <glyph glyph-name="uniF4DE" unicode="rightborder" vert-adv-y="90" 
d="M896 0v64v384h-64v64h64v384v64h64v-960h-64zM768 960h64v-64h-64v64zM768 448h-64v64h64v-64zM640 960h64v-64h-64v64zM640 448h-64v64h64v-64zM448 832v64h64v-64h-64zM384 960h64v-64h-64v64zM512 960h64v-64h-64v64zM384 448h-64v64h64v-64zM256 960h64v-64h-64v64z
M256 448h-64v64h64v-64zM128 960h64v-64h-64v64zM128 448h-64v64h64v-64zM0 384v64h64v-64h-64zM0 576h64v-64h-64v64zM0 704h64v-64h-64v64zM0 832h64v-64h-64v64zM0 960h64v-64h-64v64zM64 256h-64v64h64v-64zM64 128h-64v64h64v-64zM64 0h-64v64h64v-64zM192 0h-64v64h64
v-64zM320 0h-64v64h64v-64zM512 192h-64v64h64v-64zM512 320h-64v64h64v-64zM512 448h-64v64h64v-64zM448 768h64v-64h-64v64zM512 576h-64v64h64v-64zM512 128v-64h-64v64h64zM576 0h-64v64h64v-64zM448 0h-64v64h64v-64zM704 0h-64v64h64v-64zM832 0h-64v64h64v-64z" />
    <glyph glyph-name="uniF4DF" unicode="hori&#x7a;ontalborder" vert-adv-y="90" 
d="M896 0v64h64v-64h-64zM896 192h64v-64h-64v64zM896 320h64v-64h-64v64zM896 448h-384h-64h-384v-64h-64v192h64v-64h384h64h384v64h64v-192h-64v64zM896 704h64v-64h-64v64zM896 832h64v-64h-64v64zM896 960h64v-64h-64v64zM768 960h64v-64h-64v64zM640 960h64v-64h-64
v64zM512 576h-64v64h64v-64zM448 768h64v-64h-64v64zM448 832v64h64v-64h-64zM384 960h64v-64h-64v64zM512 960h64v-64h-64v64zM256 960h64v-64h-64v64zM128 960h64v-64h-64v64zM0 704h64v-64h-64v64zM0 832h64v-64h-64v64zM0 960h64v-64h-64v64zM64 256h-64v64h64v-64z
M64 128h-64v64h64v-64zM64 0h-64v64h64v-64zM192 0h-64v64h64v-64zM320 0h-64v64h64v-64zM448 384h64v-64h-64v64zM512 192h-64v64h64v-64zM512 128v-64h-64v64h64zM576 0h-64v64h64v-64zM448 0h-64v64h64v-64zM704 0h-64v64h64v-64zM832 0h-64v64h64v-64z" />
    <glyph glyph-name="uniF4E0" unicode="verticalborder" vert-adv-y="90" 
d="M896 0v64h64v-64h-64zM896 192h64v-64h-64v64zM896 320h64v-64h-64v64zM896 448h64v-64h-64v64zM832 512h64v-64h-64v64zM960 576v-64h-64v64h64zM896 704h64v-64h-64v64zM896 832h64v-64h-64v64zM896 960h64v-64h-64v64zM768 960h64v-64h-64v64zM768 448h-64v64h64v-64z
M640 960h64v-64h-64v64zM640 448h-64v64h64v-64zM512 512v-64v-384h64v-64h-192v64h64v384v64v384h-64v64h192v-64h-64v-384zM384 448h-64v64h64v-64zM256 960h64v-64h-64v64zM256 448h-64v64h64v-64zM128 960h64v-64h-64v64zM128 448h-64v64h64v-64zM0 384v64h64v-64h-64z
M0 576h64v-64h-64v64zM0 704h64v-64h-64v64zM0 832h64v-64h-64v64zM0 960h64v-64h-64v64zM64 256h-64v64h64v-64zM64 128h-64v64h64v-64zM64 0h-64v64h64v-64zM192 64v-64h-64v64h64zM320 0h-64v64h64v-64zM704 0h-64v64h64v-64zM832 0h-64v64h64v-64z" />
    <glyph glyph-name="uniF4E1" unicode="outerborders" vert-adv-y="90" 
d="M0 0v960h960v-960h-960zM896 448h-64v64h64v384h-384v-64h-64v64h-384v-384h64v-64h-64v-384h384v64h64v-64h384v384zM640 448h-64v64h64v-64zM768 448h-64v64h64v-64zM448 256h64v-64h-64v64zM448 384h64v-64h-64v64zM448 512h64v-64h-64v64zM448 640h64v-64h-64v64z
M448 768h64v-64h-64v64zM320 512h64v-64h-64v64zM192 512h64v-64h-64v64z" />
    <glyph glyph-name="uniF4E2" unicode="innerborders" vert-adv-y="90" 
d="M896 0v64h64v-64h-64zM896 192h64v-64h-64v64zM896 320h64v-64h-64v64zM896 448h-384v-384h64v-64h-192v64h64v384h-384v-64h-64v192h64v-64h384v384h-64v64h192v-64h-64v-384h384v64h64v-192h-64v64zM896 704h64v-64h-64v64zM896 832h64v-64h-64v64zM896 960h64v-64h-64
v64zM768 960h64v-64h-64v64zM640 960h64v-64h-64v64zM256 960h64v-64h-64v64zM128 960h64v-64h-64v64zM0 704h64v-64h-64v64zM0 832h64v-64h-64v64zM0 960h64v-64h-64v64zM64 256h-64v64h64v-64zM64 128h-64v64h64v-64zM64 0h-64v64h64v-64zM192 0h-64v64h64v-64zM320 0h-64
v64h64v-64zM704 0h-64v64h64v-64zM832 0h-64v64h64v-64z" />
    <glyph glyph-name="uniF4E3" unicode="fullborders" vert-adv-y="90" 
d="M0 0v960h960v-960h-960zM64 64h384v384h-384v-384zM64 896v-384h384v384h-384zM896 896h-384v-384h384v384zM896 448h-384v-384h384v384z" />
    <glyph glyph-name="uniF4E4" unicode="networksignalalt" vert-adv-y="90" 
d="M960.5 0q-26.5 0 -45.5 18.5t-19 45.5v704q0 26 19 45t45.5 19t45 -19t18.5 -45v-704q0 -27 -18.5 -45.5t-45 -18.5zM704.5 0q-26.5 0 -45.5 18.5t-19 45.5v448q0 26 19 45t45.5 19t45 -19t18.5 -45v-448q0 -27 -18.5 -45.5t-45 -18.5zM448.5 0q-26.5 0 -45.5 18.5
t-19 45.5v192q0 26 19 45t45.5 19t45 -19t18.5 -45v-192q0 -27 -18.5 -45.5t-45 -18.5zM256 784v-752q0 -13 -9 -22.5t-22.5 -9.5t-23 9.5t-9.5 22.5v752l-182 183q-10 10 -10 23.5t10 23.5t23.5 10t23.5 -10l135 -135v112q0 14 9.5 23t23 9t22.5 -9t9 -23v-112l136 135
q10 10 23.5 10t23.5 -10t10 -23.5t-10 -23.5z" />
    <glyph glyph-name="uniF4E5" unicode="resi&#x7a;everticalalt" vert-adv-y="90" 
d="M992 576h-960q-13 0 -22.5 9.5t-9.5 22.5t9.5 22.5t22.5 9.5h416v160h-104l-4 2l-8 4t-8 6.5t-4 9t4 10.5q12 14 73 89t69 83q20 20 46.5 20t45.5 -19q5 -5 71 -86.5t71 -86.5q7 -9 2.5 -16.5t-13.5 -11.5l-9 -4h-104v-160h416q13 0 22.5 -9.5t9.5 -22.5t-9.5 -22.5
t-22.5 -9.5zM32 448h960q13 0 22.5 -9.5t9.5 -22.5t-9.5 -22.5t-22.5 -9.5h-416v-160h104q1 -1 3.5 -1.5t8.5 -4t8 -7t4 -9t-4 -10.5q-5 -5 -71 -86.5t-71 -86.5q-19 -19 -45.5 -19t-46.5 20q-8 8 -69 83t-73 89q-6 9 -2 16.5t13 11.5l9 4h104v160h-416q-13 0 -22.5 9.5
t-9.5 22.5t9.5 22.5t22.5 9.5z" />
    <glyph glyph-name="uniF4E6" unicode="resi&#x7a;ehori&#x7a;ontalalt" vert-adv-y="90" 
d="M1005 466q-5 -5 -86.5 -71t-86.5 -71q-9 -7 -16.5 -2.5t-11.5 13.5l-4 9v104h-160v-416q0 -13 -9.5 -22.5t-22.5 -9.5t-22.5 9.5t-9.5 22.5v960q0 13 9.5 22.5t22.5 9.5t22.5 -9.5t9.5 -22.5v-416h160v104l2 4l4 8t6.5 8t9 4t10.5 -4q12 -10 88 -72t84 -70
q20 -20 20 -46.5t-19 -45.5zM416 0q-13 0 -22.5 9.5t-9.5 22.5v416h-160v-104q-1 -1 -2 -3.5t-4 -8.5t-6.5 -8t-9 -4t-10.5 4q-5 5 -86.5 71t-86.5 71q-19 19 -19 45.5t20 46.5q8 8 83 69.5t89 72.5q9 6 16.5 2t11.5 -13l4 -9v-104h160v416q0 13 9.5 22.5t22.5 9.5
t22.5 -9.5t9.5 -22.5v-960q0 -13 -9.5 -22.5t-22.5 -9.5z" />
    <glyph glyph-name="uniF4E7" unicode="moneyalt" vert-adv-y="90" 
d="M960 202q-38 33 -75 43.5t-85 10.5q-62 0 -126.5 -26t-119.5 -63t-108.5 -74t-111.5 -64t-110 -29q-86 -3 -160 62q-25 22 -44.5 64t-19.5 70v633q0 48 64 -7q37 -32 75.5 -43t84.5 -11q44 0 101.5 26t115.5 63.5t117.5 75t123.5 64t118 27.5q88 0 160 -62
q25 -22 44.5 -64t19.5 -70v-633q0 -48 -64 7zM960 708q-32 28 -64 43q-61 27 -94.5 60t-33.5 82v64q-47 -8 -101.5 -34.5t-104.5 -60l-100 -67t-104.5 -60.5t-101.5 -35v-63q0 -56 -39 -94.5t-89 -16.5q-11 6 -32.5 10.5t-31.5 8.5v-229q32 -28 64 -43q61 -28 94.5 -61
t33.5 -82v-63q47 8 101.5 34.5t104.5 60l100 67t104.5 60t101.5 34.5v64q0 55 39 94t89 16q32 -15 64 -42v253zM512 282q-80 -49 -136 -9t-56 138q0 92 55.5 185t136.5 145q80 49 136 9t56 -139q0 -92 -55.5 -184.5t-136.5 -144.5z" />
    <glyph glyph-name="uniF4E8" unicode="fontcase" vert-adv-y="90" 
d="M978 0h-31q-26 0 -50.5 18.5t-33.5 45.5l-21 64h-277l-21 -64q-8 -27 -32.5 -45.5t-50.5 -18.5h-31q-27 0 -39.5 18.5t-3.5 45.5l188 575q8 27 32.5 45.5t50.5 18.5h91q26 0 50.5 -18.5t33.5 -45.5l188 -575q8 -27 -4.5 -45.5t-38.5 -18.5zM704 552l-97 -296h194z
M352 851l-107 -404h204l-42 -127h-196l-50 -192q-9 -27 -33.5 -45.5t-50.5 -18.5h-31q-26 0 -38.5 18.5t-4.5 45.5l220 831q9 26 33.5 45t50.5 19h91q26 0 50.5 -19t32.5 -45l61 -229l-87 -266z" />
    <glyph glyph-name="uniF4E9" unicode="playstation" vert-adv-y="90" 
d="M901 195l-325 -131v96l294 108q24 11 25.5 24.5t-21 21.5t-55 6t-57.5 -13l-186 -51v96q74 33 224 32q40 0 58 -0.5t45.5 -5t50.5 -14.5q44 -17 60.5 -37t6 -41.5t-40 -43.5t-79.5 -47zM704 448q-21 0 -32 0.5t-29 2t-27.5 6t-20 11t-15 18t-4.5 26.5v225q0 13 -9.5 22.5
t-22.5 9.5t-22.5 -9.5t-9.5 -22.5v-673l-128 64v769l128 -49q24 -14 64 -31q85 -37 138.5 -99.5t53.5 -141.5v-32q0 -14 -0.5 -22.5t-3.5 -24t-9.5 -25t-19.5 -17t-31 -7.5zM70 180q-44 17 -60.5 37t-6 41.5t40 44t79.5 47.5l197 79v-92l-166 -61q-30 -19 -25 -35.5
t31 -16.5q24 0 64 7.5t68 14.5l28 7v-89q-45 -4 -96 -4q-40 0 -58 1t-45.5 5.5t-50.5 13.5z" />
    <glyph glyph-name="uniF4EA" unicode="cube" vert-adv-y="90" 
d="M512 18v448l448 239v-448zM0 769l480 256l480 -256l-480 -256zM448 18l-448 239v448l448 -239v-448z" />
    <glyph glyph-name="uniF4EB" unicode="sphere" vert-adv-y="90" 
d="M512 0q-104 0 -199 40.5t-163.5 109t-109 163.5t-40.5 199t40.5 199t109 163.5t163.5 109t199 40.5t199 -40.5t163.5 -109t109 -163.5t40.5 -199t-40.5 -199t-109 -163.5t-163.5 -109t-199 -40.5zM618.5 808.5q-42.5 73.5 -140.5 85.5t-195.5 -44.5t-136.5 -148.5
t3.5 -165.5t140.5 -85.5t195.5 44.5t136.5 148.5t-3.5 165.5zM829 234q-5 13 -13.5 18.5t-25 1.5t-38.5 -22q-32 -28 -42 -46.5t-3 -35.5q5 -13 13.5 -18.5t25.5 -1.5t38 22q32 28 42 46.5t3 35.5z" />
    <glyph glyph-name="uniF4EC" unicode="ceilinglight" vert-adv-y="90" 
d="M736 960h-160v-512h128l320 -448h-1024l320 448h128v512h-160q-13 0 -22.5 9.5t-9.5 22.5t9.5 22.5t22.5 9.5h448q13 0 22.5 -9.5t9.5 -22.5t-9.5 -22.5t-22.5 -9.5z" />
    <glyph glyph-name="uniF4ED" unicode="chandelier" vert-adv-y="90" 
d="M957 197q-10 -84 -73 -140.5t-148 -56.5q-84 0 -146.5 55t-74.5 137h-3h-3q-12 -82 -74.5 -137t-146.5 -55q-85 0 -148 56.5t-73 140.5q-30 9 -48.5 34t-18.5 57q0 29 12.5 81t36 97.5t47.5 45.5q29 0 54 -57.5t37 -122.5q101 40 172.5 198t85.5 374q-27 11 -44 34.5
t-17 53.5q0 16 6 32h244q6 -16 6 -32q0 -30 -17 -53.5t-44 -34.5q14 -216 85.5 -374t172.5 -198q12 65 37 122.5t54 57.5q24 0 47.5 -45.5t36 -97.5t12.5 -81q0 -32 -18.5 -57t-48.5 -34zM96 416q-12 0 -22 -37t-10 -65q0 -24 9.5 -41t22.5 -17t22.5 17t9.5 41q0 28 -10 65
t-22 37zM448 588q-44 -128 -111.5 -213t-147.5 -109q-12 -49 -58 -67q9 -58 53.5 -96.5t103.5 -38.5q66 0 113 47t47 113v364zM836 266q-81 24 -148.5 109t-111.5 213v-364q0 -66 47 -113t113 -47q59 0 103.5 38.5t54.5 96.5q-47 18 -58 67zM928 416q-12 0 -22 -37t-10 -65
q0 -24 9.5 -41t22.5 -17t22.5 17t9.5 41q0 28 -10 65t-22 37z" />
    <glyph glyph-name="uniF4EE" unicode="details" vert-adv-y="90" 
d="M960 256h-448q-27 0 -45.5 18.5t-18.5 45.5t18.5 45.5t45.5 18.5h448q27 0 45.5 -18.5t18.5 -45.5t-18.5 -45.5t-45.5 -18.5zM960 640h-448q-27 0 -45.5 19t-18.5 45.5t18.5 45t45.5 18.5h448q27 0 45.5 -18.5t18.5 -45t-18.5 -45.5t-45.5 -19zM960 896h-448
q-27 0 -45.5 19t-18.5 45.5t18.5 45t45.5 18.5h448q27 0 45.5 -18.5t18.5 -45t-18.5 -45.5t-45.5 -19zM320 0h-256q-27 0 -45.5 18.5t-18.5 45.5v256q0 27 18.5 45.5t45.5 18.5h256q26 0 45 -18.5t19 -45.5v-256q0 -27 -19 -45.5t-45 -18.5zM320 640h-256q-27 0 -45.5 19
t-18.5 45v256q0 27 18.5 45.5t45.5 18.5h256q26 0 45 -18.5t19 -45.5v-256q0 -26 -19 -45t-45 -19zM512 128h448q27 0 45.5 -18.5t18.5 -45.5t-19 -45.5t-45 -18.5h-448q-27 0 -45.5 18.5t-18.5 45.5t18.5 45.5t45.5 18.5z" />
    <glyph glyph-name="uniF4EF" unicode="detailsalt" vert-adv-y="90" 
d="M960 128h-576q-27 0 -45.5 19t-18.5 45.5t18.5 45t45.5 18.5h576q27 0 45.5 -18.5t18.5 -45t-19 -45.5t-45 -19zM992 384h-640q-13 0 -22.5 9.5t-9.5 22.5t9.5 22.5t22.5 9.5h640q13 0 22.5 -9.5t9.5 -22.5t-9.5 -22.5t-22.5 -9.5zM960 512h-576q-27 0 -45.5 18.5
t-18.5 45.5t18.5 45.5t45.5 18.5h576q27 0 45.5 -19t18.5 -45.5t-19 -45t-45 -18.5zM992 768h-640q-13 0 -22.5 9.5t-9.5 22.5t9.5 22.5t22.5 9.5h640q13 0 22.5 -9.5t9.5 -22.5t-9.5 -22.5t-22.5 -9.5zM960 896h-576q-27 0 -45.5 18.5t-18.5 45.5t18.5 45.5t45.5 18.5h576
q27 0 45.5 -18.5t18.5 -45.5t-19 -45.5t-45 -18.5zM192 0h-128q-27 0 -45.5 18.5t-18.5 45.5v128q0 27 18.5 45.5t45.5 18.5h128q27 0 45.5 -18.5t18.5 -45.5v-128q0 -27 -18.5 -45.5t-45.5 -18.5zM192 384h-128q-27 0 -45.5 19t-18.5 45v128q0 27 18.5 45.5t45.5 18.5h128
q26 0 45 -19t19 -45v-128q0 -27 -18.5 -45.5t-45.5 -18.5zM192 768h-128q-27 0 -45.5 18.5t-18.5 45.5v128q0 26 18.5 45t45.5 19h128q27 0 45.5 -19t18.5 -45v-128q0 -27 -19 -45.5t-45 -18.5zM352 64h640q13 0 22.5 -9.5t9.5 -22.5t-9.5 -22.5t-22.5 -9.5h-640
q-13 0 -22.5 9.5t-9.5 22.5t9.5 22.5t22.5 9.5z" />
    <glyph glyph-name="uniF4F0" unicode="bullet" vert-adv-y="90" 
d="M1014 260l-250 -250q-11 -10 -25.5 -10t-25 10.5t-10.5 25t11 24.5l250 250q10 11 24.5 11t25 -10.5t10.5 -25t-10 -25.5zM692 105q-9 -9 -22.5 -9t-22.5 9l-317 317q-10 10 -10 23t10 23l226 226q10 10 23 10t22 -10l318 -317q9 -9 9 -22.5t-9 -22.5zM601 598
q-9 10 -22 10t-23 -10l-25 -25l244 -244q9 -9 22.5 -9t22.5 9l25 26zM329 524q-12 -12 -28.5 -12t-28.5 12l-86 85q-29 30 -55.5 67.5t-45.5 74.5t-35.5 76t-26 71t-16.5 60.5t-7 43.5t2 20q5 1 20 1.5t43.5 -7t60.5 -16.5t71 -25.5t76 -35.5t74.5 -45.5t66.5 -56.5l86 -85
q12 -12 12 -28.5t-12 -28.5zM351 774q-75 74 -197 127q44 -79 96 -132l86 -85q12 -12 28.5 -12t28.5 12l24 23z" />
    <glyph glyph-name="uniF4F1" unicode="gun" vert-adv-y="90" 
d="M960 768q-7 0 -19 2l-47 -47q31 -19 66 -19q1 0 3 0.5l2 0.5l59 -545q1 -13 -7 -22.5t-21 -9.5h-189q-13 0 -23 9.5t-11 22.5l-24 224h-141q-70 0 -115 50t-45 142h-352q-13 0 -22.5 9.5t-9.5 22.5v32h-32q-13 0 -22.5 9.5t-9.5 22.5v128q0 13 9.5 22.5t22.5 9.5h32v32
q0 13 9.5 22.5t22.5 9.5t22.5 -9.5t9.5 -22.5v-32h604h4h96q0 -35 19 -66l56 57q14 13 32 7q13 2 21 2q27 0 45.5 -9.5t18.5 -22.5t-18.5 -22.5t-45.5 -9.5zM728 576h-24q0 -38 -17 -71.5t-47 -55.5v127h-122q-6 -16 -6 -32q0 -40 28 -68t68 -28h134z" />
    <glyph glyph-name="uniF4F2" unicode="processorthree" vert-adv-y="90" 
d="M1024 704v-704h-832l-192 192v512q26 0 45 19t19 45.5t-19 45t-45 18.5v192h1024v-192q-27 0 -45.5 -18.5t-18.5 -45t18.5 -45.5t45.5 -19zM896 800q0 40 -28 68t-68 28h-576q-40 0 -68 -28t-28 -68v-576q0 -40 28 -68t68 -28h576q40 0 68 28t28 68v576zM800 192h-576
q-13 0 -22.5 9.5t-9.5 22.5v576q0 13 9.5 22.5t22.5 9.5h576q13 0 22.5 -9.5t9.5 -22.5v-576q0 -13 -9.5 -22.5t-22.5 -9.5z" />
    <glyph glyph-name="uniF4F3" unicode="world" vert-adv-y="90" 
d="M512 0q-104 0 -199 40.5t-163.5 109t-109 163.5t-40.5 199t40.5 199t109 163.5t163.5 109t199 40.5t199 -40.5t163.5 -109t109 -163.5t40.5 -199t-40.5 -199t-109 -163.5t-163.5 -109t-199 -40.5zM293 731l-48 42q-11 0 -26 -2.5t-27 -2.5q-1 1 -18 37
q-110 -127 -110 -293q0 -3 0.5 -8t0.5 -7q6 -6 29.5 -22.5t33.5 -26.5h64q3 2 5.5 3t5.5 2q-10 11 -29.5 32.5t-29.5 31.5q4 23 11 69.5t10 69.5q86 36 128 53v22zM494 894q-14 6 -26 11q-3 8 -4 12q-6 -19 -19 -57q4 -1 11.5 -2t11.5 -2h26v38zM490 423q-5 -5 -7 -8
q-12 -21 -34 -64t-33 -64q14 -21 42.5 -64t42.5 -64q130 -8 197 -12q2 -25 16 -34q91 46 154 127.5t83 182.5q-19 4 -41.5 11t-32.5 9.5t-39.5 5t-61.5 -3.5q-12 -1 -15.5 15.5t-3.5 34t-4 18.5q-22 4 -89 -7.5t-89 -7.5q-13 -12 -85 -75zM549 924q-3 -20 -10.5 -60
t-11.5 -61q5 1 16.5 2.5t16.5 1.5q-3 2 -7 4q15 5 22 8q-17 70 -26 105zM665 933q-2 -11 -2 -31t-10 -53q1 -2 4 -4q20 2 67 7q0 21 21 42q-38 23 -80 39zM790 863q-2 -4 -7 -11q19 -3 25 -5q-12 11 -18 16zM817 839q-3 -6 -9.5 -18t-9.5 -18q-29 -1 -78 -3l-4 34
q-2 -1 -7 -2.5t-8 -1.5v-49q-21 -2 -64.5 -6t-64.5 -6q-7 -10 -15 -22q27 -58 41 -87q-20 -5 -82 -22v-34q0 -2 1.5 -6t2.5 -6q17 -8 53 -24t54 -25l22 27q-1 10 -5 31.5t-6 32.5q3 2 9.5 5.5t9.5 5.5q27 8 41 11q13 -21 36.5 -60t29.5 -49q9 8 25 24.5t24 24.5
q-54 38 -71 49q1 8 4 23h37q56 -48 115 -98q1 0 2 1.5t2 1.5q-4 8 -26 49q0 1 3 4l4 4h41q1 1 17 9q-34 116 -124 200z" />
    <glyph glyph-name="uniF4F4" unicode="statistics" vert-adv-y="90" 
d="M896 0h-768q-53 0 -90.5 37.5t-37.5 90.5v768q0 53 37.5 90.5t90.5 37.5h768q53 0 90.5 -37.5t37.5 -90.5v-768q0 -53 -37.5 -90.5t-90.5 -37.5zM320 288q0 13 -9.5 22.5t-22.5 9.5h-64q-13 0 -22.5 -9.5t-9.5 -22.5v-128q0 -13 9.5 -22.5t22.5 -9.5h64q13 0 22.5 9.5
t9.5 22.5v128zM576 544q0 13 -9.5 22.5t-22.5 9.5h-64q-13 0 -22.5 -9.5t-9.5 -22.5v-384q0 -13 9.5 -22.5t22.5 -9.5h64q13 0 22.5 9.5t9.5 22.5v384zM832 864q0 13 -9.5 22.5t-22.5 9.5h-64q-13 0 -22.5 -9.5t-9.5 -22.5v-704q0 -13 9.5 -22.5t22.5 -9.5h64q13 0 22.5 9.5
t9.5 22.5v704z" />
    <glyph glyph-name="uniF4F5" unicode="shoppingcartalt" vert-adv-y="90" 
d="M960 896h-32l-162 -596q-4 -18 -23.5 -31t-38.5 -13h-480q-23 0 -40 12.5t-22 31.5l-158 376q-10 37 3 64.5t41 27.5h19q19 0 35.5 -13.5t21.5 -32.5l132 -338h416l171 595q5 19 20 32t33 13h64q27 0 45.5 -19t18.5 -45.5t-18.5 -45t-45.5 -18.5zM640.5 640
q-26.5 0 -45.5 18.5t-19 45t19 45.5t45.5 19t45 -19t18.5 -45.5t-18.5 -45t-45 -18.5zM640 511.5q0 -26.5 -18.5 -45t-45 -18.5t-45.5 18.5t-19 45t19 45.5t45.5 19t45 -19t18.5 -45.5zM512.5 832q-26.5 0 -45.5 18.5t-19 45t19 45.5t45.5 19t45 -19t18.5 -45.5t-18.5 -45
t-45 -18.5zM512 703.5q0 -26.5 -18.5 -45t-45 -18.5t-45.5 18.5t-19 45t19 45.5t45.5 19t45 -19t18.5 -45.5zM448 511.5q0 -26.5 -18.5 -45t-45 -18.5t-45.5 18.5t-19 45t19 45.5t45.5 19t45 -19t18.5 -45.5zM320.5 832q-26.5 0 -45.5 18.5t-19 45t19 45.5t45.5 19t45 -19
t18.5 -45.5t-18.5 -45t-45 -18.5zM320 703.5q0 -26.5 -18.5 -45t-45 -18.5t-45.5 18.5t-19 45t19 45.5t45.5 19t45 -19t18.5 -45.5zM293 192q40 0 68 -28t28 -68t-28 -68t-68 -28t-68 28t-28 68t28 68t68 28zM612.5 192q39.5 0 68 -28t28.5 -68t-28.5 -68t-68 -28t-67.5 28
t-28 68t28 68t67.5 28z" />
    <glyph glyph-name="uniF4F6" unicode="microphonealt" vert-adv-y="90" 
d="M576 134v-70q0 -27 -18.5 -45.5t-45 -18.5t-45.5 18.5t-19 45.5v70q-137 23 -228.5 129.5t-91.5 248.5q0 27 18.5 45.5t45.5 18.5t45.5 -18.5t18.5 -45.5q0 -106 75 -181t181 -75t181 75t75 181q0 27 19 45.5t45.5 18.5t45 -18.5t18.5 -45.5q0 -142 -91.5 -248.5
t-228.5 -129.5zM608 512h96q0 -80 -56 -136t-135.5 -56t-136 56t-56.5 136h96q13 0 22.5 9.5t9.5 22.5t-9.5 22.5t-22.5 9.5h-96v64h96q13 0 22.5 9.5t9.5 22.5t-9.5 22.5t-22.5 9.5h-96v64h96q13 0 22.5 9.5t9.5 22.5t-9.5 22.5t-22.5 9.5h-96q0 80 56.5 136t136 56
t135.5 -56t56 -136h-96q-13 0 -22.5 -9.5t-9.5 -22.5t9.5 -22.5t22.5 -9.5h96v-64h-96q-13 0 -22.5 -9.5t-9.5 -22.5t9.5 -22.5t22.5 -9.5h96v-64h-96q-13 0 -22.5 -9.5t-9.5 -22.5t9.5 -22.5t22.5 -9.5z" />
    <glyph glyph-name="uniF4F7" unicode="routeralt" vert-adv-y="90" 
d="M896 320h-128l182 660q4 15 16.5 30.5t25.5 12.5q15 -3 24.5 -14t7.5 -23zM0 986q-1 12 8 23t24 14q13 3 25.5 -12.5t16.5 -30.5l182 -660h-128zM128 256h768q53 0 90.5 -37.5t37.5 -90.5t-37.5 -90.5t-90.5 -37.5h-768q-53 0 -90.5 37.5t-37.5 90.5t37.5 90.5t90.5 37.5
zM767.5 64q26.5 0 45.5 18.5t19 45t-19 45.5t-45.5 19t-45 -19t-18.5 -45.5t18.5 -45t45 -18.5zM512 64q26 0 45 18.5t19 45t-19 45.5t-45.5 19t-45 -19t-18.5 -45.5t19 -45t45 -18.5zM256.5 64q26.5 0 45 18.5t18.5 45t-18.5 45.5t-45 19t-45.5 -19t-19 -45.5t19 -45
t45.5 -18.5z" />
    <glyph glyph-name="uniF4F8" unicode="shell" vert-adv-y="90" 
d="M992 356q-199 -133 -375 -237q-39 -55 -105 -55q-54 0 -92 39q-46 26 -113 68.5t-117.5 76.5t-103 69.5t-54.5 37.5q-21 14 -28 51t-1.5 76t18.5 65q14 29 45.5 56t61.5 34q-3 42 25 93.5t61 74.5t82.5 26.5t81.5 -21.5q16 36 57.5 61.5t76.5 25.5t76.5 -26t57.5 -61
q32 25 81.5 22t83.5 -27q33 -23 61 -74t25 -93q30 -8 61 -34.5t45 -55.5q13 -27 18.5 -65.5t-1.5 -76t-28 -50.5zM311 439q-66 65 -119 105t-62.5 30.5t30.5 -62.5t105 -119q39 -38 78 -72q15 23 35 46q-31 35 -67 72zM390.5 704.5q-12.5 -3.5 -4.5 -71.5t32 -161
q6 -27 15 -56q30 21 56 28q-6 27 -11 45q-23 93 -49 156t-38.5 59.5zM633.5 704.5q-12.5 3.5 -38.5 -59.5t-49 -156q-5 -18 -11 -45q26 -7 56 -28q9 29 15 56q24 93 32 161t-4.5 71.5zM894.5 574.5q-9.5 9.5 -62.5 -30.5t-118 -105q-36 -36 -68 -72q20 -23 35 -46
q39 33 78 73q65 65 105 118t30.5 62.5zM128 128q-27 0 -45.5 19t-18.5 45v78q120 -79 226 -142h-162zM960 192q0 -26 -18.5 -45t-45.5 -19h-162q108 65 226 142v-78z" />
    <glyph glyph-name="uniF4F9" unicode="squareplay" vert-adv-y="90" 
d="M896 0h-768q-53 0 -90.5 37.5t-37.5 90.5v768q0 53 37.5 90.5t90.5 37.5h768q53 0 90.5 -37.5t37.5 -90.5v-768q0 -53 -37.5 -90.5t-90.5 -37.5zM760 531l-409 232q-12 13 -31 -7v-488q18 -20 31 -7l409 232q8 8 8 19t-8 19z" />
    <glyph glyph-name="uniF4FA" unicode="squarestop" vert-adv-y="90" 
d="M896 0h-768q-53 0 -90.5 37.5t-37.5 90.5v768q0 53 37.5 90.5t90.5 37.5h768q53 0 90.5 -37.5t37.5 -90.5v-768q0 -53 -37.5 -90.5t-90.5 -37.5zM768 704q0 26 -18.5 45t-45.5 19h-384q-26 0 -45 -19t-19 -45v-384q0 -27 19 -45.5t45 -18.5h384q27 0 45.5 18.5t18.5 45.5
v384z" />
    <glyph glyph-name="uniF4FB" unicode="squarepause" vert-adv-y="90" 
d="M896 0h-768q-53 0 -90.5 37.5t-37.5 90.5v768q0 53 37.5 90.5t90.5 37.5h768q53 0 90.5 -37.5t37.5 -90.5v-768q0 -53 -37.5 -90.5t-90.5 -37.5zM448 704q0 26 -18.5 45t-45.5 19h-64q-26 0 -45 -19t-19 -45v-384q0 -27 19 -45.5t45 -18.5h64q27 0 45.5 18.5t18.5 45.5
v384zM768 704q0 26 -18.5 45t-45.5 19h-64q-26 0 -45 -19t-19 -45v-384q0 -27 19 -45.5t45 -18.5h64q27 0 45.5 18.5t18.5 45.5v384z" />
    <glyph glyph-name="uniF4FC" unicode="squarerecord" vert-adv-y="90" 
d="M896 0h-768q-53 0 -90.5 37.5t-37.5 90.5v768q0 53 37.5 90.5t90.5 37.5h768q53 0 90.5 -37.5t37.5 -90.5v-768q0 -53 -37.5 -90.5t-90.5 -37.5zM512 768q-106 0 -181 -75t-75 -181t75 -181t181 -75t181 75t75 181t-75 181t-181 75z" />
    <glyph glyph-name="uniF4FD" unicode="squareforward" vert-adv-y="90" 
d="M896 0h-768q-53 0 -90.5 37.5t-37.5 90.5v768q0 53 37.5 90.5t90.5 37.5h768q53 0 90.5 -37.5t37.5 -90.5v-768q0 -53 -37.5 -90.5t-90.5 -37.5zM505 531l-218 231q-13 14 -31 -6v-488q18 -20 31 -7l218 232q7 7 7 18.5t-7 19.5zM825 531l-218 231q-12 14 -31 -6v-488
q19 -20 31 -7l218 232q7 7 7 18.5t-7 19.5z" />
    <glyph glyph-name="uniF4FE" unicode="squareback" vert-adv-y="90" 
d="M896 0h-768q-53 0 -90.5 37.5t-37.5 90.5v768q0 53 37.5 90.5t90.5 37.5h768q53 0 90.5 -37.5t37.5 -90.5v-768q0 -53 -37.5 -90.5t-90.5 -37.5zM448 756q-19 20 -31 6l-218 -232q-7 -7 -7 -18.5t7 -19.5l218 -231q12 -13 31 7v488zM768 756q-18 20 -31 6l-218 -232
q-7 -7 -7 -18.5t7 -19.5l218 -231q13 -13 31 7v488z" />
    <glyph glyph-name="uniF4FF" unicode="squarenext" vert-adv-y="90" 
d="M896 0h-768q-53 0 -90.5 37.5t-37.5 90.5v768q0 53 37.5 90.5t90.5 37.5h768q53 0 90.5 -37.5t37.5 -90.5v-768q0 -53 -37.5 -90.5t-90.5 -37.5zM448 704q0 26 -18.5 45t-45.5 19h-64q-26 0 -45 -19t-19 -45v-384q0 -27 19 -45.5t45 -18.5h64q27 0 45.5 18.5t18.5 45.5
v384zM825 531l-218 231q-13 14 -31 -6v-488q19 -20 31 -7l218 231q7 8 7 19.5t-7 19.5z" />
    <glyph glyph-name="uniF500" unicode="squareprevious" vert-adv-y="90" 
d="M896 0h-768q-53 0 -90.5 37.5t-37.5 90.5v768q0 53 37.5 90.5t90.5 37.5h768q53 0 90.5 -37.5t37.5 -90.5v-768q0 -53 -37.5 -90.5t-90.5 -37.5zM448 756q-18 20 -31 6l-218 -231q-7 -8 -7 -19.5t7 -18.5l218 -232q12 -13 31 7v488zM768 704q0 26 -19 45t-45 19h-64
q-27 0 -45.5 -19t-18.5 -45v-384q0 -27 18.5 -45.5t45.5 -18.5h64q26 0 45 18.5t19 45.5v384z" />
    <glyph glyph-name="uniF501" unicode="mega" vert-adv-y="90" 
d="M896 0h-768q-53 0 -90.5 37.5t-37.5 90.5v768q0 53 37.5 90.5t90.5 37.5h768q53 0 90.5 -37.5t37.5 -90.5v-768q0 -53 -37.5 -90.5t-90.5 -37.5zM896 832h-128l-256 -256l-256 256h-128v-640h128v448l192 -192h128l192 192v-448h128v640z" />
    <glyph glyph-name="uniF502" unicode="charliechaplin" vert-adv-y="90" 
d="M1024 512q0 -35 -68.5 -64.5t-186.5 -46.5t-257 -17t-257 17t-186.5 46.5t-68.5 64.5q0 48 129 85q-1 22 -1 27q0 109 51.5 201t140 145.5t192.5 53.5t192.5 -53.5t140 -145.5t51.5 -201q0 -5 -1 -27q129 -37 129 -85zM576 128l64 -128h-256l64 128h128z" />
    <glyph glyph-name="uniF503" unicode="popcorn" vert-adv-y="90" 
d="M1023 690l-104 -640q-3 -21 -25 -35.5t-49 -14.5h-658q-27 0 -49 14.5t-26 35.5l-111 640q-5 26 6.5 47t35.5 31q76 -34 240 -52q-26 19 -26 52q0 26 18.5 45t45 19t45.5 -19t19 -45q0 -19 -10 -34.5t-27 -23.5q83 -6 165 -6q49 0 109 3q-20 6 -32.5 22.5t-12.5 38.5
q0 26 18.5 45t45 19t45.5 -19t19 -45q0 -20 -11 -35.5t-28 -23.5q216 15 315 59q23 -10 34.5 -31t7.5 -47zM386 644q-106 6 -189 20l64 -600h150zM639 644l-22 -580h152l61 600q-85 -14 -191 -20zM896.5 768q-26.5 0 -45.5 18.5t-19 45t19 45.5t45.5 19t45 -19t18.5 -45.5
t-18.5 -45t-45 -18.5zM704.5 832q-26.5 0 -45 18.5t-18.5 45t18.5 45.5t45 19t45 -19t18.5 -45.5t-18.5 -45t-45 -18.5zM512.5 896q-26.5 0 -45 18.5t-18.5 45t18.5 45.5t45 19t45.5 -19t19 -45.5t-19 -45t-45.5 -18.5zM513 831.5q0 -26.5 -19 -45t-45.5 -18.5t-45 18.5
t-18.5 45t18.5 45.5t45 19t45.5 -19t19 -45.5zM320.5 896q-26.5 0 -45 18.5t-18.5 45t18.5 45.5t45 19t45.5 -19t19 -45.5t-19 -45t-45.5 -18.5zM128.5 768q-26.5 0 -45 18.5t-18.5 45t18.5 45.5t45 19t45.5 -19t19 -45.5t-19 -45t-45.5 -18.5z" />
    <glyph glyph-name="uniF504" unicode="fatarrowright" vert-adv-y="90" 
d="M995 418l-284 -378q-29 -39 -71 -39l-512 -1q-53 0 -90.5 37.5t-37.5 90.5v769q0 53 37.5 90.5t90.5 37.5h512v0q42 0 71 -39l284 -378q29 -40 29 -95t-29 -95z" />
    <glyph glyph-name="uniF505" unicode="fatarrowleft" vert-adv-y="90" 
d="M896 0h-513v1q-41 0 -70 39l-284 378q-29 40 -29 95t29 94l284 379q29 38 70 39h1h512q53 0 90.5 -37.5t37.5 -90.5v-769q0 -53 -37.5 -90.5t-90.5 -37.5z" />
    <glyph glyph-name="uniF506" unicode="fatarrowdown" vert-adv-y="90" 
d="M1024 383v0q0 -41 -39 -70l-378 -284q-39 -29 -94.5 -29t-94.5 29l-378 284q-39 29 -39 70h-1v512q0 53 37.5 90.5t90.5 37.5h768q53 0 90.5 -37.5t37.5 -90.5v-511v-1z" />
    <glyph glyph-name="uniF507" unicode="fatarrowup" vert-adv-y="90" 
d="M1024 640v-1v-511q0 -53 -37.5 -90.5t-90.5 -37.5h-768q-53 0 -90.5 37.5t-37.5 90.5v512h1q0 41 39 70l378 284q39 29 94.5 29t94.5 -29l378 -284q39 -29 39 -70v0z" />
    <glyph glyph-name="uniF508" unicode="shirtbutton" vert-adv-y="90" 
d="M512 0q-104 0 -199 40.5t-163.5 109t-109 163.5t-40.5 199t40.5 199t109 163.5t163.5 109t199 40.5t199 -40.5t163.5 -109t109 -163.5t40.5 -199t-40.5 -199t-109 -163.5t-163.5 -109t-199 -40.5zM352 448q-40 0 -68 -28t-28 -68t28 -68t68 -28t68 28t28 68t-28 68
t-68 28zM672 768q-40 0 -68 -28t-28 -68t28 -68t68 -28t68 28t28 68t-28 68t-68 28z" />
    <glyph glyph-name="uniF509" unicode="shirtbuttonalt" vert-adv-y="90" 
d="M512 0q-104 0 -199 40.5t-163.5 109t-109 163.5t-40.5 199t40.5 199t109 163.5t163.5 109t199 40.5t199 -40.5t163.5 -109t109 -163.5t40.5 -199t-40.5 -199t-109 -163.5t-163.5 -109t-199 -40.5zM352 768q-40 0 -68 -28t-28 -68t28 -68t68 -28t68 28t28 68t-28 68
t-68 28zM352 448q-40 0 -68 -28t-28 -68t28 -68t68 -28t68 28t28 68t-28 68t-68 28zM672 768q-40 0 -68 -28t-28 -68t28 -68t68 -28t68 28t28 68t-28 68t-68 28zM672 448q-40 0 -68 -28t-28 -68t28 -68t68 -28t68 28t28 68t-28 68t-68 28z" />
    <glyph glyph-name="uniF50A" unicode="cuckooclock" vert-adv-y="90" 
d="M1005.5 467q-18.5 -19 -45 -19t-44.5 19l-30 29l-54 -444q-4 -22 -23 -37t-43 -15h-254h-254q-24 0 -43 15t-23 37l-54 444l-30 -29q-18 -19 -44.5 -19t-45 19t-18.5 45t19 45l448 448q19 19 45 18q27 0 45 -18l448 -448q19 -19 19 -45t-18.5 -45zM512 640
q-106 0 -181 -75t-75 -181t75 -181t181 -75t181 75t75 181t-75 181t-181 75zM533 361q-9 -9 -21.5 -9t-21.5 9l-98 98q-9 9 -9 22t9 22t22 9t22 -9l76 -77l108 109q9 9 21.5 9t21.5 -9t9 -22t-9 -22z" />
    <glyph glyph-name="uniF50B" unicode="lens" vert-adv-y="90" 
d="M911 191l-215 372q-12 44 -42 77h353q17 -65 17 -128q0 -180 -113 -321zM512 704q-15 0 -30 -2l174 301q112 -33 199.5 -112t130.5 -187h-473h-1zM333 581l-174 301q70 67 161 104.5t192 37.5q39 0 79 -6l-214 -371q-30 -29 -44 -66zM369 385h-353q-16 62 -16 127
q0 180 113 321l214 -370q12 -43 42 -78zM512 320q11 0 30 3l-174 -302q-113 33 -200 112t-131 188h469q1 0 3 -0.5t3 -0.5zM691 444l174 -302q-70 -67 -161 -104.5t-192 -37.5q-36 0 -79 7l213 368q29 28 45 69z" />
    <glyph glyph-name="uniF50C" unicode="voltage" vert-adv-y="90" 
d="M571 192h133l-192 -192l-192 192h123l142 256h-329l192 576h128l-149 -448h341z" />
    <glyph glyph-name="uniF50D" unicode="planealt" vert-adv-y="90" 
d="M896 448h-288q-1 -6 -3 -19q-35 -205 -61 -269q38 -25 67 -53t29 -43q0 -13 -5.5 -23.5t-13.5 -17t-22.5 -11.5t-25.5 -7t-30.5 -3.5t-30.5 -1.5h-32h-32t-30.5 1.5t-30.5 3.5t-25.5 7t-22.5 11.5t-13.5 17t-5.5 23.5q0 15 29 43t67 53q-26 64 -60 267q-3 14 -4 21h-288
q-27 0 -45.5 19t-18.5 45v128q0 26 19 45t45 19h256v32q0 57 36.5 101t91.5 55v68q-82 2 -137 11t-55 21q0 13 65.5 22.5t158.5 9.5t158.5 -9.5t65.5 -22.5q0 -12 -55 -21t-137 -11v-68q55 -11 91.5 -55t36.5 -101v-32h256q26 0 45 -19t19 -45v-128q0 -27 -18.5 -45.5
t-45.5 -18.5z" />
    <glyph glyph-name="uniF50E" unicode="busalt" vert-adv-y="90" 
d="M960 192h-64q0 53 -37.5 90.5t-90.5 37.5t-90.5 -37.5t-37.5 -90.5h-256q0 53 -37.5 90.5t-90.5 37.5t-90.5 -37.5t-37.5 -90.5h-64q-27 0 -45.5 18.5t-18.5 45.5v224q0 119 37.5 203.5t90.5 84.5h832q27 0 45.5 -19t18.5 -45v-448q0 -27 -18.5 -45.5t-45.5 -18.5z
M192 608q0 13 -9.5 22.5t-22.5 9.5h-32q-13 0 -38.5 -25.5t-25.5 -38.5v-32q0 -13 9.5 -22.5t22.5 -9.5h64q13 0 22.5 9.5t9.5 22.5v64zM384 608q0 13 -9.5 22.5t-22.5 9.5h-64q-13 0 -22.5 -9.5t-9.5 -22.5v-64q0 -13 9.5 -22.5t22.5 -9.5h64q13 0 22.5 9.5t9.5 22.5v64z
M576 608q0 13 -9.5 22.5t-22.5 9.5h-64q-13 0 -22.5 -9.5t-9.5 -22.5v-64q0 -13 9.5 -22.5t22.5 -9.5h64q13 0 22.5 9.5t9.5 22.5v64zM768 608q0 13 -9.5 22.5t-22.5 9.5h-64q-13 0 -22.5 -9.5t-9.5 -22.5v-64q0 -13 9.5 -22.5t22.5 -9.5h64q13 0 22.5 9.5t9.5 22.5v64z
M960 608q0 13 -9.5 22.5t-22.5 9.5h-64q-13 0 -22.5 -9.5t-9.5 -22.5v-64q0 -13 9.5 -22.5t22.5 -9.5h64q13 0 22.5 9.5t9.5 22.5v64zM255.5 256q26.5 0 45.5 -18.5t19 -45t-19 -45.5t-45.5 -19t-45 18.5t-18.5 45.5t18.5 45.5t45 18.5zM768 256q27 0 45.5 -18.5t18.5 -45
t-18.5 -45.5t-45.5 -19t-45.5 18.5t-18.5 45.5t18.5 45.5t45.5 18.5z" />
    <glyph glyph-name="uniF50F" unicode="lipstick" vert-adv-y="90" 
d="M882.5 77.5q-47.5 -47.5 -94.5 -67.5t-66 -1l-457 458q-20 19 3 69l-166 166q-13 13 -25.5 80t-12.5 114q0 28 16 60t32 50l16 18l299 -330q47 20 67 1l457 -457q19 -19 -1 -66t-67.5 -94.5z" />
    <glyph glyph-name="uniF510" unicode="plantalt" vert-adv-y="90" 
d="M867 632q-68 -41 -145 -52t-116 13q-1 0 -6.5 4t-11.5 7.5t-12 3.5v-280q44 51 100 85q31 19 71.5 27.5t76.5 7.5t67.5 -4.5t49.5 -8.5l19 -4q-3 -6 -9.5 -16t-26.5 -37.5t-41 -52.5t-52.5 -53.5t-62.5 -47.5q-130 -78 -192 -82v-78q0 -26 -18.5 -45t-45.5 -19t-45.5 19
t-18.5 45v66q-47 -6 -109.5 9t-115.5 46q-31 18 -59 49.5t-45.5 63t-30.5 61.5t-18.5 47.5t-5.5 18.5q8 3 21 6.5t50.5 10t72 7t75.5 -9t70 -31.5t95 -121v257q-6 0 -12 -3.5t-11.5 -7.5t-6.5 -5q-39 -23 -116 -12t-145 52q-31 19 -59 52t-44.5 63t-30 64.5t-17.5 47.5
t-6 20q7 2 19.5 5t48.5 7.5t69 5t74.5 -8t72.5 -27.5q62 -37 107.5 -89.5t56.5 -99.5v161q0 2 1 8q-45 12 -81 36q-35 24 -63 73.5t-38 87.5l-11 38q5 1 14 3.5t34.5 6t49 3.5t53.5 -6.5t52 -21.5q49 -32 83 -83.5t34 -80.5v-64v-97q11 47 56.5 99.5t107.5 89.5
q31 19 71.5 27.5t76.5 7.5t67.5 -4.5t49.5 -7.5l19 -5q-2 -7 -5.5 -19.5t-17.5 -47.5t-30.5 -65t-44.5 -63t-59 -52z" />
    <glyph glyph-name="uniF511" unicode="paperboat" vert-adv-y="90" 
d="M1010 494l-209 -316q-12 -21 -34 -35.5t-42 -14.5h-426q-20 0 -42 14.5t-34 35.5l-209 316q-18 33 -13 57t32 24h197l238 238q18 18 43.5 18t43.5 -18l238 -238h198q27 0 32 -24t-13 -57z" />
    <glyph glyph-name="uniF512" unicode="texture" vert-adv-y="90" 
d="M1024 826v-180q-16 -6 -32 -6q-40 0 -68 28t-28 68t28 68t68 28q15 0 32 -6zM704 992q0 -40 -28 -68t-68 -28t-68 28t-28 68q0 15 6 32h180q6 -17 6 -32zM448 992q0 -40 -28 -68t-68 -28t-68 28t-28 68q0 15 6 32h180q6 -17 6 -32zM128 1024h58q6 -16 6 -32
q0 -40 -28 -68t-68 -28q-27 0 -50 14t-35 38q15 34 46.5 55t70.5 21zM64 736q0 -31 -18 -55.5t-46 -34.5v180q28 -10 46 -34.5t18 -55.5zM64 224q0 -31 -18 -55.5t-46 -34.5v180q28 -10 46 -34.5t18 -55.5zM35 41q27 23 61 23q31 0 55.5 -18t34.5 -46h-58q-55 0 -93 41z
M352 64q31 0 55.5 -18t34.5 -46h-180q10 28 34.5 46t55.5 18zM608 64q31 0 55.5 -18t34.5 -46h-180q10 28 34.5 46t55.5 18zM896 0h-122q10 28 34.5 46t55.5 18q27 0 50 -14.5t35 -37.5q-26 -12 -53 -12zM1024 314v-180q-16 -6 -32 -6q-40 0 -68 28t-28 68t28 68t68 28
q15 0 32 -6zM960 480q0 -40 -28 -68t-68 -28t-68 28t-28 68t28 68t68 28t68 -28t28 -68zM736 832q40 0 68 -28t28 -68t-28 -68t-68 -28t-68 28t-28 68t28 68t68 28zM832 224q0 -40 -28 -68t-68 -28t-68 28t-28 68t28 68t68 28t68 -28t28 -68zM704 480q0 -40 -28 -68t-68 -28
t-68 28t-28 68t28 68t68 28t68 -28t28 -68zM480 832q40 0 68 -28t28 -68t-28 -68t-68 -28t-68 28t-28 68t28 68t68 28zM576 224q0 -40 -28 -68t-68 -28t-68 28t-28 68t28 68t68 28t68 -28t28 -68zM448 480q0 -40 -28 -68t-68 -28t-68 28t-28 68t28 68t68 28t68 -28t28 -68z
M224 832q40 0 68 -28t28 -68t-28 -68t-68 -28t-68 28t-28 68t28 68t68 28zM320 224q0 -40 -28 -68t-68 -28t-68 28t-28 68t28 68t68 28t68 -28t28 -68zM96 576q40 0 68 -28t28 -68t-28 -68t-68 -28t-68 28t-28 68t28 68t68 28zM864 896q-40 0 -68 28t-28 68q0 16 6 32h122
q33 0 63 -17q1 -9 1 -15q0 -40 -28 -68t-68 -28z" />
    <glyph glyph-name="uniF513" unicode="dominoone" vert-adv-y="90" 
d="M832 0h-704q-53 0 -90.5 37.5t-37.5 90.5v704q0 53 37.5 90.5t90.5 37.5h704q53 0 90.5 -37.5t37.5 -90.5v-704q0 -53 -37.5 -90.5t-90.5 -37.5zM480 576q-40 0 -68 -28t-28 -68t28 -68t68 -28t68 28t28 68t-28 68t-68 28z" />
    <glyph glyph-name="uniF514" unicode="dominotwo" vert-adv-y="90" 
d="M832 0h-704q-53 0 -90.5 37.5t-37.5 90.5v704q0 53 37.5 90.5t90.5 37.5h704q53 0 90.5 -37.5t37.5 -90.5v-704q0 -53 -37.5 -90.5t-90.5 -37.5zM160 256q-40 0 -68 -28t-28 -68t28 -68t68 -28t68 28t28 68t-28 68t-68 28zM800 896q-40 0 -68 -28t-28 -68t28 -68t68 -28
t68 28t28 68t-28 68t-68 28z" />
    <glyph glyph-name="uniF515" unicode="dominothree" vert-adv-y="90" 
d="M832 0h-704q-53 0 -90.5 37.5t-37.5 90.5v704q0 53 37.5 90.5t90.5 37.5h704q53 0 90.5 -37.5t37.5 -90.5v-704q0 -53 -37.5 -90.5t-90.5 -37.5zM160 256q-40 0 -68 -28t-28 -68t28 -68t68 -28t68 28t28 68t-28 68t-68 28zM480 576q-40 0 -68 -28t-28 -68t28 -68t68 -28
t68 28t28 68t-28 68t-68 28zM800 896q-40 0 -68 -28t-28 -68t28 -68t68 -28t68 28t28 68t-28 68t-68 28z" />
    <glyph glyph-name="uniF516" unicode="dominofour" vert-adv-y="90" 
d="M832 0h-704q-53 0 -90.5 37.5t-37.5 90.5v704q0 53 37.5 90.5t90.5 37.5h704q53 0 90.5 -37.5t37.5 -90.5v-704q0 -53 -37.5 -90.5t-90.5 -37.5zM160 896q-40 0 -68 -28t-28 -68t28 -68t68 -28t68 28t28 68t-28 68t-68 28zM160 256q-40 0 -68 -28t-28 -68t28 -68t68 -28
t68 28t28 68t-28 68t-68 28zM800 896q-40 0 -68 -28t-28 -68t28 -68t68 -28t68 28t28 68t-28 68t-68 28zM800 256q-40 0 -68 -28t-28 -68t28 -68t68 -28t68 28t28 68t-28 68t-68 28z" />
    <glyph glyph-name="uniF517" unicode="dominofive" vert-adv-y="90" 
d="M832 0h-704q-53 0 -90.5 37.5t-37.5 90.5v704q0 53 37.5 90.5t90.5 37.5h704q53 0 90.5 -37.5t37.5 -90.5v-704q0 -53 -37.5 -90.5t-90.5 -37.5zM160 896q-40 0 -68 -28t-28 -68t28 -68t68 -28t68 28t28 68t-28 68t-68 28zM160 256q-40 0 -68 -28t-28 -68t28 -68t68 -28
t68 28t28 68t-28 68t-68 28zM480 576q-40 0 -68 -28t-28 -68t28 -68t68 -28t68 28t28 68t-28 68t-68 28zM800 896q-40 0 -68 -28t-28 -68t28 -68t68 -28t68 28t28 68t-28 68t-68 28zM800 256q-40 0 -68 -28t-28 -68t28 -68t68 -28t68 28t28 68t-28 68t-68 28z" />
    <glyph glyph-name="uniF518" unicode="dominosix" vert-adv-y="90" 
d="M832 0h-704q-53 0 -90.5 37.5t-37.5 90.5v704q0 53 37.5 90.5t90.5 37.5h704q53 0 90.5 -37.5t37.5 -90.5v-704q0 -53 -37.5 -90.5t-90.5 -37.5zM160 896q-40 0 -68 -28t-28 -68t28 -68t68 -28t68 28t28 68t-28 68t-68 28zM160 576q-40 0 -68 -28t-28 -68t28 -68t68 -28
t68 28t28 68t-28 68t-68 28zM160 256q-40 0 -68 -28t-28 -68t28 -68t68 -28t68 28t28 68t-28 68t-68 28zM800 896q-40 0 -68 -28t-28 -68t28 -68t68 -28t68 28t28 68t-28 68t-68 28zM800 576q-40 0 -68 -28t-28 -68t28 -68t68 -28t68 28t28 68t-28 68t-68 28zM800 256
q-40 0 -68 -28t-28 -68t28 -68t68 -28t68 28t28 68t-28 68t-68 28z" />
    <glyph glyph-name="uniF519" unicode="dominoseven" vert-adv-y="90" 
d="M832 0h-704q-53 0 -90.5 37.5t-37.5 90.5v704q0 53 37.5 90.5t90.5 37.5h704q53 0 90.5 -37.5t37.5 -90.5v-704q0 -53 -37.5 -90.5t-90.5 -37.5zM160 896q-40 0 -68 -28t-28 -68t28 -68t68 -28t68 28t28 68t-28 68t-68 28zM160 576q-40 0 -68 -28t-28 -68t28 -68t68 -28
t68 28t28 68t-28 68t-68 28zM160 256q-40 0 -68 -28t-28 -68t28 -68t68 -28t68 28t28 68t-28 68t-68 28zM480 896q-40 0 -68 -28t-28 -68t28 -68t68 -28t68 28t28 68t-28 68t-68 28zM800 896q-40 0 -68 -28t-28 -68t28 -68t68 -28t68 28t28 68t-28 68t-68 28zM800 576
q-40 0 -68 -28t-28 -68t28 -68t68 -28t68 28t28 68t-28 68t-68 28zM800 256q-40 0 -68 -28t-28 -68t28 -68t68 -28t68 28t28 68t-28 68t-68 28z" />
    <glyph glyph-name="uniF51A" unicode="dominoeight" vert-adv-y="90" 
d="M832 0h-704q-53 0 -90.5 37.5t-37.5 90.5v704q0 53 37.5 90.5t90.5 37.5h704q53 0 90.5 -37.5t37.5 -90.5v-704q0 -53 -37.5 -90.5t-90.5 -37.5zM160 896q-40 0 -68 -28t-28 -68t28 -68t68 -28t68 28t28 68t-28 68t-68 28zM160 576q-40 0 -68 -28t-28 -68t28 -68t68 -28
t68 28t28 68t-28 68t-68 28zM160 256q-40 0 -68 -28t-28 -68t28 -68t68 -28t68 28t28 68t-28 68t-68 28zM480 896q-40 0 -68 -28t-28 -68t28 -68t68 -28t68 28t28 68t-28 68t-68 28zM480 256q-40 0 -68 -28t-28 -68t28 -68t68 -28t68 28t28 68t-28 68t-68 28zM800 896
q-40 0 -68 -28t-28 -68t28 -68t68 -28t68 28t28 68t-28 68t-68 28zM800 576q-40 0 -68 -28t-28 -68t28 -68t68 -28t68 28t28 68t-28 68t-68 28zM800 256q-40 0 -68 -28t-28 -68t28 -68t68 -28t68 28t28 68t-28 68t-68 28z" />
    <glyph glyph-name="uniF51B" unicode="dominonine" vert-adv-y="90" 
d="M832 0h-704q-53 0 -90.5 37.5t-37.5 90.5v704q0 53 37.5 90.5t90.5 37.5h704q53 0 90.5 -37.5t37.5 -90.5v-704q0 -53 -37.5 -90.5t-90.5 -37.5zM160 896q-40 0 -68 -28t-28 -68t28 -68t68 -28t68 28t28 68t-28 68t-68 28zM160 576q-40 0 -68 -28t-28 -68t28 -68t68 -28
t68 28t28 68t-28 68t-68 28zM160 256q-40 0 -68 -28t-28 -68t28 -68t68 -28t68 28t28 68t-28 68t-68 28zM480 896q-40 0 -68 -28t-28 -68t28 -68t68 -28t68 28t28 68t-28 68t-68 28zM480 576q-40 0 -68 -28t-28 -68t28 -68t68 -28t68 28t28 68t-28 68t-68 28zM480 256
q-40 0 -68 -28t-28 -68t28 -68t68 -28t68 28t28 68t-28 68t-68 28zM800 896q-40 0 -68 -28t-28 -68t28 -68t68 -28t68 28t28 68t-28 68t-68 28zM800 576q-40 0 -68 -28t-28 -68t28 -68t68 -28t68 28t28 68t-28 68t-68 28zM800 256q-40 0 -68 -28t-28 -68t28 -68t68 -28
t68 28t28 68t-28 68t-68 28z" />
    <glyph glyph-name="uniF51C" unicode="connected" vert-adv-y="90" 
d="M960 192h-256q0 -27 -18.5 -45.5t-45.5 -18.5h-256q-27 0 -45.5 18.5t-18.5 45.5h-256q-27 0 -45.5 19t-18.5 45v128q0 27 18.5 45.5t45.5 18.5h256q0 27 18.5 45.5t45.5 18.5v320q0 27 18.5 45.5t45.5 18.5h128q27 0 45.5 -18.5t18.5 -45.5v-320q27 0 45.5 -18.5
t18.5 -45.5h256q27 0 45.5 -18.5t18.5 -45.5v-128q0 -26 -18.5 -45t-45.5 -19zM320 384h-224q-13 0 -22.5 -9.5t-9.5 -22.5t9.5 -22.5t22.5 -9.5h224v64zM512 800q0 13 -9.5 22.5t-22.5 9.5t-22.5 -9.5t-9.5 -22.5v-288h64v288zM640 448h-256v-256h256v256zM928 384h-224
v-64h224q13 0 22.5 9.5t9.5 22.5t-9.5 22.5t-22.5 9.5z" />
    <glyph glyph-name="uniF51D" unicode="connectedpc" vert-adv-y="90" 
d="M960 64h-256q0 -27 -18.5 -45.5t-45.5 -18.5h-256q-26 0 -45 19t-19 45h-256q-26 0 -45 19t-19 45v128q0 27 19 45.5t45 18.5h256q0 27 19 45.5t45 18.5v64h-192q-26 0 -45 19t-19 45v448q0 27 19 45.5t45 18.5h640q27 0 45.5 -18.5t18.5 -45.5v-448q0 -27 -18.5 -45.5
t-45.5 -18.5h-192v-64q27 0 45.5 -18.5t18.5 -45.5h256q27 0 45.5 -19t18.5 -45v-128q0 -26 -18.5 -45t-45.5 -19zM320 256h-224q-13 0 -22.5 -9.5t-9.5 -22.5t9.5 -22.5t22.5 -9.5h224v64zM832 576v384h-640v-384h640zM448 448v-64h64v64h-64zM640 320h-256v-256h256v256z
M928 256h-224v-64h224q13 0 22.5 9.5t9.5 22.5t-9.5 22.5t-22.5 9.5z" />
    <glyph glyph-name="uniF51E" unicode="musicsheet" vert-adv-y="90" 
d="M992 256q13 0 22.5 -9.5t9.5 -22.5t-9.5 -22.5t-22.5 -9.5h-96v-32q0 -13 -9.5 -22.5t-22.5 -9.5t-22.5 9.5t-9.5 22.5v32h-800q-13 0 -22.5 9.5t-9.5 22.5t9.5 22.5t22.5 9.5h54q-22 30 -22 63.5t22 64.5h-54q-13 0 -22.5 9.5t-9.5 22.5t9.5 22.5t22.5 9.5h288v128h-288
q-13 0 -22.5 9.5t-9.5 22.5t9.5 22.5t22.5 9.5h288v128h-288q-13 0 -22.5 9.5t-9.5 22.5t9.5 22.5t22.5 9.5h288v160q0 13 9.5 22.5t22.5 9.5t22.5 -9.5t9.5 -22.5v-160h192q0 53 47 90.5t113 37.5t113 -37.5t47 -90.5h96q13 0 22.5 -9.5t9.5 -22.5t-9.5 -22.5t-22.5 -9.5
h-96v-128h96q13 0 22.5 -9.5t9.5 -22.5t-9.5 -22.5t-22.5 -9.5h-96v-128h96q13 0 22.5 -9.5t9.5 -22.5t-9.5 -22.5t-22.5 -9.5h-96v-128h96zM832 730q-43 -26 -96 -26q-43 0 -80 17.5t-58 46.5h-214v-128h448v90zM832 576h-448v-128h448v128zM832 384h-448v-96h-6
q-5 -17 -16 -32h470v128zM32 64h960q13 0 22.5 -9.5t9.5 -22.5t-9.5 -22.5t-22.5 -9.5h-960q-13 0 -22.5 9.5t-9.5 22.5t9.5 22.5t22.5 9.5z" />
    <glyph glyph-name="uniF51F" unicode="rdio" vert-adv-y="90" 
d="M889 589q7 -41 7 -77q0 -91 -35.5 -174t-95.5 -143t-143 -95.5t-174 -35.5t-174 35.5t-143 95.5t-95.5 143t-35.5 174t35.5 174t95.5 143t143 95.5t174 35.5q63 0 128 -19v-259q-38 22 -96 22q-52 0 -104.5 -33.5t-86 -86t-33.5 -104.5q0 -160 160 -160q52 0 104.5 33.5
t86 86t33.5 104.5v372q99 -47 165 -134q117 -78 219 -78q0 -34 -39 -66t-96 -49z" />
    <glyph glyph-name="uniF520" unicode="spotify" vert-adv-y="90" 
d="M775 73q-52 84 -138.5 133.5t-188.5 49.5q-81 0 -154 -32.5t-126 -89.5q-79 72 -123.5 170t-44.5 208q0 104 40.5 199t109 163.5t163.5 109t199 40.5t199 -40.5t163.5 -109t109 -163.5t40.5 -199q0 -138 -67.5 -254t-181.5 -185zM316 366q67 18 132 18q120 0 229 -54
l28 57q-122 61 -257 61q-73 0 -148 -20zM267 552q92 24 181 24q165 0 315 -75l28 57q-163 82 -343 82q-98 0 -198 -27zM448 832q-126 0 -247 -32l16 -63q117 31 231 31q210 0 400 -95l29 58q-202 101 -429 101zM656 21q-72 -21 -144 -21q-126 0 -238 59q74 69 174 69
q63 0 117.5 -29t90.5 -78z" />
    <glyph glyph-name="uniF521" unicode="deviantart" vert-adv-y="90" 
d="M896 0h-768q-53 0 -90.5 37.5t-37.5 90.5v768q0 53 37.5 90.5t90.5 37.5h768q53 0 90.5 -37.5t37.5 -90.5v-768q0 -53 -37.5 -90.5t-90.5 -37.5zM128 64h768q27 0 45.5 18.5t18.5 45.5v283l-320 -91l-160 256h160l68 -101l219 58q-155 107 -351 107q-94 0 -183 -27
l183 -325l-512 -122v-38q0 -27 19 -45.5t45 -18.5zM366 383l-96 181q-48 -24 -78.5 -47.5t-43.5 -47.5t-16.5 -41.5t-3.5 -43.5q0 -29 2 -63zM896 960h-768q-26 0 -45 -18.5t-19 -45.5v-271q70 45 136 71l-72 136h128l61 -97q128 33 259 33q203 0 384 -76v204
q0 27 -18.5 45.5t-45.5 18.5z" />
    <glyph glyph-name="uniF522" unicode="yelp" vert-adv-y="90" 
d="M882 514l-272 -66q-18 4 -27.5 18t-4.5 29l155 185q6 17 30 22.5t39 -15.5l80 -111q26 -39 0 -62zM615 384l247 -127q19 0 29.5 -19.5t-6.5 -38.5l-124 -125q-20 -16 -39 -5.5t-20 29.5l-126 246q-1 17 11 28.5t28 11.5zM445 6l-168 67q-24 13 -21 36.5t21 29.5l168 166
q22 23 44.5 11t22.5 -44v-232q0 -25 -21 -35.5t-46 1.5zM445 527l-232 358q-18 6 -21 29.5t21 36.5l232 67q25 12 46 1.5t21 -35.5v-424q0 -32 -22.5 -44t-44.5 11zM432 453q16 -15 16 -37t-16 -37l-228 -111q-11 -11 -29 -12t-32.5 10.5t-14.5 33.5v232q0 22 14.5 33.5
t32.5 10.5t29 -12z" />
    <glyph glyph-name="uniF523" unicode="behance" vert-adv-y="90" 
d="M640 768h320v-64h-320v64zM800.5 640q104.5 0 164 -73t59.5 -183h-384q0 -85 40.5 -138.5t119.5 -53.5q63 0 101 35t52 93h65q-16 -86 -72.5 -139t-145.5 -53q-104 0 -164 73t-60 183t60 183t164.5 73zM953 448q-13 59 -51.5 93.5t-101 34.5t-101 -34.5t-52.5 -93.5h306z
M512 320q0 -79 -62.5 -135.5t-151.5 -56.5h-298v320v64v320h261q77 0 132 -56t55 -136q0 -81 -51 -140q49 -21 82 -70.5t33 -109.5zM264 768h-200v-256h200q50 0 85 37.5t35 90.5t-35 90.5t-85 37.5zM304 448h-240v-256h240q59 0 101.5 37.5t42.5 90.5t-42.5 90.5
t-101.5 37.5z" />
    <glyph glyph-name="uniF524" unicode="nfc" vert-adv-y="90" 
d="M896 0h-416q-45 0 -83.5 33.5t-57.5 77.5t-19 81v530l320 -274v128l-448 384v-768q0 -37 19 -81t57.5 -77.5t83.5 -33.5h-224q-53 0 -90.5 37.5t-37.5 90.5v768q0 53 37.5 90.5t90.5 37.5h416q45 0 83.5 -33.5t57.5 -77.5t19 -81v-530l-320 274v-128l448 -384v768
q0 37 -19 81t-57.5 77.5t-83.5 33.5h224q53 0 90.5 -37.5t37.5 -90.5v-768q0 -53 -37.5 -90.5t-90.5 -37.5z" />
    <glyph glyph-name="uniF525" unicode="earbudsalt" vert-adv-y="90" 
d="M992 0q-13 0 -22.5 9.5t-9.5 22.5v64q0 26 -10 46t-24 29t-28 14t-24 6l-10 1h-512q-66 0 -113 47t-47 113v166q-28 10 -46 34.5t-18 55.5v128q0 40 28 68t68 28t68 -28t28 -68v-128q0 -31 -18 -55.5t-46 -34.5v-166q0 -40 28 -68t68 -28h385q-33 43 -33 96v166
q-28 10 -46 34.5t-18 55.5v128q0 40 28 68t68 28t68 -28t28 -68v-128q0 -31 -18 -55.5t-46 -34.5v-166q0 -27 10 -46.5t24 -28.5t28 -14.5t24 -5.5l10 -1q66 0 113 -47t47 -113v-64q0 -13 -9.5 -22.5t-22.5 -9.5zM896 736q0 66 -47 113t-113 47t-113 -47t-47 -113v-92
q-64 65 -64 156q0 93 65.5 158.5t158.5 65.5t158.5 -65.5t65.5 -158.5q0 -91 -64 -156v92zM384 736q0 66 -47 113t-113 47t-113 -47t-47 -113v-92q-64 65 -64 156q0 93 65.5 158.5t158.5 65.5t158.5 -65.5t65.5 -158.5q0 -91 -64 -156v92z" />
    <glyph glyph-name="uniF526" unicode="earbuds" vert-adv-y="90" 
d="M704 288q-86 -42 -139 -121t-53 -167h-64q0 88 -53 167t-139 121q-115 47 -185.5 142.5t-70.5 209.5v256q0 26 18.5 45t45.5 19q23 0 41 -15t22 -37q57 44 129 51v1q0 27 19 45.5t45.5 18.5t45 -18.5t18.5 -45.5v-320q0 -27 -19 -45.5t-45 -18.5t-45 18.5t-19 45.5v2
q-72 10 -128 50v-52q0 -24 -16 -42t-40 -21q17 -71 65.5 -131t118.5 -94q76 -31 134 -85.5t90 -123.5q32 69 90 123.5t134 85.5q70 34 118.5 94t65.5 131q-24 3 -40 21t-16 42v52q-55 -40 -128 -50v-2q0 -27 -18.5 -45.5t-45 -18.5t-45.5 18.5t-19 45.5v320q0 27 19 45.5
t45.5 18.5t45 -18.5t18.5 -45.5v-1q72 -7 129 -51q5 22 22.5 37t40.5 15q27 0 45.5 -19t18.5 -45v-256q0 -114 -70.5 -209.5t-185.5 -142.5z" />
    <glyph glyph-name="uniF527" unicode="ama&#x7a;on" vert-adv-y="90" 
d="M960 64v96q0 72 -8 84t-56 12h-128q3 3 16 13t19 14.5t19.5 13t23 12.5t23.5 7.5t27 3.5q96 0 112 -20t16 -140q0 -25 -10 -40.5t-28.5 -30.5t-25.5 -25zM610 325q-46 -46 -107 -73.5t-125 -27.5q-116 0 -182.5 64t-66.5 162q0 65 30 116t85 78t158 47q127 25 174 45v32
q0 53 -37 90.5t-91 37.5q-45 0 -86.5 -41.5t-41.5 -86.5l-160 64q15 54 35 82.5t59 56.5q74 54 220 54q147 0 198 -33q52 -32 74 -94t22 -162v-224q0 -53 21 -95.5t43 -64.5l-160 -96q-8 12 -33 36.5t-29 32.5zM576 608q-62 -21 -102 -30q-154 -33 -154 -130q0 -64 128 -64
q45 0 86.5 26.5t41.5 69.5v128zM864 192q32 0 32 -32q-195 -160 -448 -160t-448 160q0 32 32 32q93 -64 193.5 -96t222.5 -32t222.5 32t193.5 96z" />
    <glyph glyph-name="uniF528" unicode="openid" vert-adv-y="90" 
d="M992 383h-192q-13 0 -22.5 9.5t-9.5 22.5l61 62q-49 42 -125 68v132q128 -35 214 -112l74 74q13 0 22.5 -9.5t9.5 -22.5v-192q0 -13 -9.5 -22.5t-22.5 -9.5zM608 86q-14 -9 -35 -23.5t-62.5 -38.5t-53.5 -24q-132 4 -237 52t-162.5 126.5t-57.5 172.5q0 122 108.5 216.5
t275.5 124.5v-130q-113 -23 -184.5 -81t-71.5 -130q0 -83 91.5 -146.5t228.5 -77.5v756q0 13 9.5 28.5t22.5 24.5l128 81q13 8 22.5 4.5t9.5 -16.5v-866q0 -14 -9.5 -29t-22.5 -24z" />
    <glyph glyph-name="uniF529" unicode="digg" vert-adv-y="90" 
d="M832 0h-704q-53 0 -90.5 37.5t-37.5 90.5v704q0 53 37.5 90.5t90.5 37.5h704q53 0 90.5 -37.5t37.5 -90.5v-704q0 -53 -37.5 -90.5t-90.5 -37.5zM256 608v128q0 13 -9.5 22.5t-22.5 9.5t-22.5 -9.5t-9.5 -22.5v-96h-96q-13 0 -22.5 -9.5t-9.5 -22.5v-256q0 -13 9.5 -22.5
t22.5 -9.5h128q13 0 22.5 9.5t9.5 22.5v256zM352 768q-13 0 -22.5 -9.5t-9.5 -22.5t9.5 -22.5t22.5 -9.5t22.5 9.5t9.5 22.5t-9.5 22.5t-22.5 9.5zM384 608q0 13 -9.5 22.5t-22.5 9.5t-22.5 -9.5t-9.5 -22.5v-256q0 -13 9.5 -22.5t22.5 -9.5t22.5 9.5t9.5 22.5v256zM640 352
v256q0 13 -9.5 22.5t-22.5 9.5h-128q-13 0 -22.5 -9.5t-9.5 -22.5v-256q0 -13 9.5 -22.5t22.5 -9.5h96v-64h-96q-13 0 -22.5 -9.5t-9.5 -22.5t9.5 -22.5t22.5 -9.5h128q13 0 22.5 9.5t9.5 22.5v128zM896 608q0 13 -9.5 22.5t-22.5 9.5h-128q-13 0 -22.5 -9.5t-9.5 -22.5
v-256q0 -13 9.5 -22.5t22.5 -9.5h96v-64h-96q-13 0 -22.5 -9.5t-9.5 -22.5t9.5 -22.5t22.5 -9.5h128q13 0 22.5 9.5t9.5 22.5v384zM768 576h64v-192h-64v192zM512 576h64v-192h-64v192zM128 576h64v-192h-64v192z" />
    <glyph glyph-name="uniF52A" unicode="retweet" vert-adv-y="90" 
d="M1024 448l-192 -256l-192 256h128v256h-384l-96 128h608v-384h128zM256 576v-256h384l96 -128h-608v384h-128l192 256l192 -256h-128z" />
    <glyph glyph-name="uniF52B" unicode="moonnew" vert-adv-y="90" 
d="M512 0q-104 0 -199 40.5t-163.5 109t-109 163.5t-40.5 199t40.5 199t109 163.5t163.5 109t199 40.5t199 -40.5t163.5 -109t109 -163.5t40.5 -199t-40.5 -199t-109 -163.5t-163.5 -109t-199 -40.5zM512 960q-91 0 -174 -35.5t-143 -95.5t-95.5 -143t-35.5 -174t35.5 -174
t95.5 -143t143 -95.5t174 -35.5t174 35.5t143 95.5t95.5 143t35.5 174t-35.5 174t-95.5 143t-143 95.5t-174 35.5z" />
    <glyph glyph-name="uniF52C" unicode="moonwaxingcrescent" vert-adv-y="90" 
d="M512 0q-139 0 -257 68.5t-186.5 186.5t-68.5 257q0 104 40.5 199t109 163.5t163.5 109t199 40.5t199 -40.5t163.5 -109t109 -163.5t40.5 -199t-40.5 -199t-109 -163.5t-163.5 -109t-199 -40.5zM512 960q-91 0 -174 -35.5t-143 -95.5t-95.5 -143t-35.5 -174t35.5 -174
t95.5 -143t143 -95.5t174 -35.5q61 0 122 72t97.5 176.5t36.5 199.5t-36.5 199.5t-97.5 176.5t-122 72z" />
    <glyph glyph-name="uniF52D" unicode="moonfirstquarter" vert-adv-y="90" 
d="M512 0q-104 0 -199 40.5t-163.5 109t-109 163.5t-40.5 199t40.5 199t109 163.5t163.5 109t199 40.5t199 -40.5t163.5 -109t109 -163.5t40.5 -199t-40.5 -199t-109 -163.5t-163.5 -109t-199 -40.5zM512 960q-91 0 -174 -35.5t-143 -95.5t-95.5 -143t-35.5 -174t35.5 -174
t95.5 -143t143 -95.5t174 -35.5v896z" />
    <glyph glyph-name="uniF52E" unicode="moonwaxinggibbous" vert-adv-y="90" 
d="M512 0q-104 0 -199 40.5t-163.5 109t-109 163.5t-40.5 199t40.5 199t109 163.5t163.5 109t199 40.5t199 -40.5t163.5 -109t109 -163.5t40.5 -199t-40.5 -199t-109 -163.5t-163.5 -109t-199 -40.5zM512 960q-91 0 -174 -35.5t-143 -95.5t-95.5 -143t-35.5 -174t35.5 -174
t95.5 -143t143 -95.5t174 -35.5q-61 0 -122 72t-97.5 176.5t-36.5 199.5t36.5 199.5t97.5 176.5t122 72z" />
    <glyph glyph-name="uniF52F" unicode="moonfull" vert-adv-y="90" 
d="M512 1024q-104 0 -199 -40.5t-163.5 -109t-109 -163.5t-40.5 -199t40.5 -199t109 -163.5t163.5 -109t199 -40.5t199 40.5t163.5 109t109 163.5t40.5 199t-40.5 199t-109 163.5t-163.5 109t-199 40.5z" />
    <glyph glyph-name="uniF530" unicode="moonwaninggibbous" vert-adv-y="90" 
d="M512 0q-104 0 -199 40.5t-163.5 109t-109 163.5t-40.5 199t40.5 199t109 163.5t163.5 109t199 40.5t199 -40.5t163.5 -109t109 -163.5t40.5 -199t-40.5 -199t-109 -163.5t-163.5 -109t-199 -40.5zM512 960q61 0 122 -72t97.5 -176.5t36.5 -199.5t-36.5 -199.5
t-97.5 -176.5t-122 -72q91 0 174 35.5t143 95.5t95.5 143t35.5 174t-35.5 174t-95.5 143t-143 95.5t-174 35.5z" />
    <glyph glyph-name="uniF531" unicode="moonthirdquarter" vert-adv-y="90" 
d="M512 0q-104 0 -199 40.5t-163.5 109t-109 163.5t-40.5 199t40.5 199t109 163.5t163.5 109t199 40.5t199 -40.5t163.5 -109t109 -163.5t40.5 -199t-40.5 -199t-109 -163.5t-163.5 -109t-199 -40.5zM512 960v-896q91 0 174 35.5t143 95.5t95.5 143t35.5 174t-35.5 174
t-95.5 143t-143 95.5t-174 35.5z" />
    <glyph glyph-name="uniF532" unicode="moonwaningcrescent" vert-adv-y="90" 
d="M512 0q-104 0 -199 40.5t-163.5 109t-109 163.5t-40.5 199t40.5 199t109 163.5t163.5 109t199 40.5t199 -40.5t163.5 -109t109 -163.5t40.5 -199t-40.5 -199t-109 -163.5t-163.5 -109t-199 -40.5zM512 960q-61 0 -122 -72t-97.5 -176.5t-36.5 -199.5t36.5 -199.5
t97.5 -176.5t122 -72q91 0 174 35.5t143 95.5t95.5 143t35.5 174t-35.5 174t-95.5 143t-143 95.5t-174 35.5z" />
    <glyph glyph-name="uniF533" unicode="planet" vert-adv-y="90" 
d="M829 473q-14 -119 -104.5 -200t-212.5 -81q-79 0 -149 37q-128 -40 -224.5 -37t-126.5 52q-32 50 19 133.5t164 172.5q14 120 104.5 200.5t212.5 80.5q79 0 149 -37q128 40 224.5 37t126.5 -51q32 -51 -19 -134t-164 -173zM136 290q15 -27 61 -33t110 10q-87 72 -108 183
q-94 -106 -63 -160zM888 734q-15 27 -61 32.5t-110 -9.5q87 -73 108 -183q94 105 63 160z" />
    <glyph glyph-name="uniF534" unicode="sodacup" vert-adv-y="90" 
d="M768 640l-64 -576q-5 -24 -20 -44t-36 -20h-272q-21 0 -36.5 20t-19.5 44l-64 576q-26 0 -45 18.5t-19 45t19 45.5t45 19h315l56 224q4 17 18 26t30 4.5t24 -20t4 -32.5l-50 -202h115q26 0 45 -19t19 -45.5t-19 -45t-45 -18.5z" />
    <glyph glyph-name="uniF535" unicode="cocktail" vert-adv-y="90" 
d="M894.5 925q-4.5 -16 -20 -24t-32.5 -4l-147 43l-28 -108h5q13 0 22.5 -9.5t9.5 -22.5v-736q0 -27 -19 -45.5t-45 -18.5h-256q-27 0 -45.5 19t-18.5 45v576q-80 0 -136 56t-56 136t56 136t136 56t136 -56t56 -136h73l42 160q4 12 11 18.5t18 9t17 3t21 0.5l170 -50
q18 -4 26.5 -18t4 -30zM384 722q29 17 46 46h-46v-46zM320 960q-53 0 -90.5 -37.5t-37.5 -90.5t37.5 -90.5t90.5 -37.5v96q0 13 9.5 22.5t22.5 9.5h96q0 53 -37.5 90.5t-90.5 37.5zM500 768q-14 -41 -44.5 -71.5t-71.5 -44.5v-76h133l51 192h-68zM640 730l-41 -154h41v154z
" />
    <glyph glyph-name="uniF536" unicode="church" vert-adv-y="90" 
d="M1016 448h-568v-64h480q13 0 22.5 -9.5t9.5 -22.5v-320q0 -13 -9.5 -22.5t-22.5 -9.5h-672v160q0 13 -9.5 22.5t-22.5 9.5t-22.5 -9.5t-9.5 -22.5v-160h-160q-13 0 -22.5 9.5t-9.5 22.5v510q-1 16 8 27l184 177v86h-96q-13 0 -22.5 9.5t-9.5 22.5t9.5 22.5t22.5 9.5h96
v96q0 13 9.5 22.5t22.5 9.5t22.5 -9.5t9.5 -22.5v-96h96q13 0 22.5 -9.5t9.5 -22.5t-9.5 -22.5t-22.5 -9.5h-96v-86l177 -170h476q16 0 27 -16l84 -96q5 -7 3.5 -11.5t-7.5 -4.5zM832 160q0 -13 9.5 -22.5t22.5 -9.5t22.5 9.5t9.5 22.5v64q0 13 -9.5 22.5t-23 9.5
t-22.5 -9.5t-9 -22.5v-64zM704 160q0 -13 9.5 -22.5t22.5 -9.5t22.5 9.5t9.5 22.5v64q0 13 -9.5 22.5t-22.5 9.5t-22.5 -9.5t-9.5 -22.5v-64zM576 160q0 -13 9.5 -22.5t22.5 -9.5t22.5 9.5t9.5 22.5v64q0 13 -9.5 22.5t-22.5 9.5t-22.5 -9.5t-9.5 -22.5v-64z" />
    <glyph glyph-name="uniF537" unicode="mosque" vert-adv-y="90" 
d="M992 384q13 0 22.5 -9.5t9.5 -22.5v-320q0 -13 -9.5 -22.5t-22.5 -9.5h-960q-13 0 -22.5 9.5t-9.5 22.5v320q0 13 9.5 22.5t22.5 9.5h32v256h-32q-13 0 -22.5 9.5t-9.5 22.5t9.5 22.5t22.5 9.5h32v65q-32 3 -48 16.5t-16 46.5q0 36 18 80.5t49 78t61 33.5t61 -33.5
t49 -78t18 -80.5q0 -33 -16 -46.5t-48 -16.5v-65h32q13 0 22.5 -9.5t9.5 -22.5t-9.5 -22.5t-22.5 -9.5h-32v-256h64v128q0 88 54 157t138 91v8q0 26 19 45t45.5 19t45 -19t18.5 -45v-8q84 -22 138 -91t54 -157v-128h64v256h-32q-13 0 -22.5 9.5t-9.5 22.5t9.5 22.5t22.5 9.5
h32v65q-32 3 -48 16.5t-16 46.5q0 36 18.5 80.5t49 78t60.5 33.5t61 -33.5t49 -78t18 -80.5q0 -33 -16 -46.5t-48 -16.5v-65h32q13 0 22.5 -9.5t9.5 -22.5t-9.5 -22.5t-22.5 -9.5h-32v-256h32zM256 224q0 13 -9.5 22.5t-22.5 9.5t-22.5 -9.5t-9.5 -22.5v-64q0 -13 9.5 -22.5
t22.5 -9.5t22.5 9.5t9.5 22.5v64zM384 224q0 13 -9.5 22.5t-22.5 9.5t-22.5 -9.5t-9.5 -22.5v-64q0 -13 9.5 -22.5t22.5 -9.5t22.5 9.5t9.5 22.5v64zM704 224q0 13 -9.5 22.5t-22.5 9.5t-22.5 -9.5t-9.5 -22.5v-64q0 -13 9.5 -22.5t22.5 -9.5t22.5 9.5t9.5 22.5v64zM832 224
q0 13 -9.5 22.5t-22.5 9.5t-22.5 -9.5t-9.5 -22.5v-64q0 -13 9.5 -22.5t22.5 -9.5t22.5 9.5t9.5 22.5v64z" />
    <glyph glyph-name="uniF538" unicode="comedy" vert-adv-y="90" 
d="M512 0q-145 36 -262 135.5t-183.5 242.5t-66.5 299v283q290 64 512 64t512 -64v-283q0 -156 -66.5 -299t-183.5 -242.5t-262 -135.5zM320 832q-53 0 -90.5 -19t-37.5 -45.5t37.5 -45t90.5 -18.5t90.5 18.5t37.5 45t-37.5 45.5t-90.5 19zM704 832q-53 0 -90.5 -19
t-37.5 -45.5t37.5 -45t90.5 -18.5t90.5 18.5t37.5 45t-37.5 45.5t-90.5 19zM512 384q-60 0 -171 68q-82 50 -104 56q-43 7 -45 -49q0 -37 49.5 -85t126.5 -83t144 -35t144 35t126.5 83t49.5 85q0 52 -31 51q-24 0 -103 -49q-104 -64 -157 -74q-15 -3 -29 -3z" />
    <glyph glyph-name="uniF539" unicode="tragedy" vert-adv-y="90" 
d="M512 0q-145 36 -262 135.5t-183.5 242.5t-66.5 299v283q290 64 512 64t512 -64v-283q0 -156 -66.5 -299t-183.5 -242.5t-262 -135.5zM320 832q-53 0 -90.5 -19t-37.5 -45.5t37.5 -45t90.5 -18.5t90.5 18.5t37.5 45t-37.5 45.5t-90.5 19zM256 371q0 -34 12.5 -44.5
t37.5 -2.5t54 21t71.5 26t80.5 13t80.5 -13t71.5 -26t54 -21t37.5 2.5t12.5 44.5q0 35 -51.5 69.5t-110.5 53t-94 18.5t-94 -18.5t-110.5 -53t-51.5 -69.5zM704 832q-53 0 -90.5 -19t-37.5 -45.5t37.5 -45t90.5 -18.5t90.5 18.5t37.5 45t-37.5 45.5t-90.5 19z" />
    <glyph glyph-name="uniF53A" unicode="bacon" vert-adv-y="90" 
d="M960 192q-3 22 -24 74.5t-34 65.5q-47 46 -96.5 79.5t-83.5 48t-68 32t-53 36.5q-45 45 -74.5 91.5t-51.5 86.5t-51 68q-44 44 -67.5 66t-58 51t-62.5 44t-54 19l70 70q27 -4 55 -19t62.5 -44t58 -51.5t67.5 -65.5q29 -28 51 -68t51.5 -86.5t74.5 -91.5q22 -22 69 -51
t109.5 -73.5t121.5 -103.5q14 -13 31.5 -57.5t20.5 -66.5zM566 493q18 -19 52 -36.5t68 -32t84 -48t96 -79.5q8 -8 16 -35.5t17.5 -64t18.5 -56.5l-36 -36q-1 12 -16 29.5t-40 39.5t-27 24q-78 77 -163.5 158.5t-105.5 101.5q-57 57 -133 136t-107 110q-29 28 -55.5 63
t-41 56.5t-36 38.5t-46.5 22l35 35q27 -5 55 -19.5t62.5 -43.5t58 -51.5t67.5 -65.5q28 -28 50.5 -68t52 -86.5t74.5 -91.5zM495 423q19 -19 104.5 -101t164.5 -159q2 -3 26.5 -24.5t40 -39t16.5 -29.5l-71 -70q-3 23 -20.5 67t-30.5 57q-59 59 -121.5 103.5t-109.5 73.5
t-70 52q-45 44 -74 91t-51.5 86.5t-50.5 67.5q-79 78 -138 122.5t-110 53.5l75 75q26 -5 47.5 -22t35.5 -38.5t41 -56.5t55 -64q32 -31 108 -110t133 -135z" />
    <glyph glyph-name="uniF53B" unicode="trailor" vert-adv-y="90" 
d="M960 256h-86q-28 58 -82 93t-120 35t-120 -35t-82 -93h-438q-13 0 -22.5 9.5t-9.5 22.5t9.5 22.5t22.5 9.5h96v448q0 106 75 181t181 75h384q106 0 181 -75t75 -181v-448q0 -26 -18.5 -45t-45.5 -19zM448 768q0 27 -19 45.5t-45 18.5h-64q-27 0 -45.5 -18.5t-18.5 -45.5
v-64q0 -26 18.5 -45t45.5 -19h64q27 0 45.5 19t18.5 45v64zM896 768q0 27 -18.5 45.5t-45.5 18.5h-256q-26 0 -45 -18.5t-19 -45.5v-64q0 -26 19 -45t45 -19h256q27 0 45.5 19t18.5 45v64zM672 320q66 0 113 -47t47 -113t-47 -113t-113 -47t-113 47t-47 113t47 113t113 47z
M672 128q13 0 22.5 9.5t9.5 22.5t-9.5 22.5t-22.5 9.5t-22.5 -9.5t-9.5 -22.5t9.5 -22.5t22.5 -9.5z" />
    <glyph glyph-name="uniF53C" unicode="tshirt" vert-adv-y="90" 
d="M1009 696l-72 -72q-15 -15 -36.5 -15t-36.5 15l-32 31v-527q0 -26 -18.5 -45t-45.5 -19h-512q-27 0 -45.5 19t-18.5 45v527l-32 -31q-15 -15 -36.5 -15t-36.5 15l-72 72q-15 15 -15 36t15 36l177 177q15 16 64 16h128q0 -37 33.5 -50.5t94.5 -13.5t94.5 13.5t33.5 50.5
h128q49 0 64 -16l177 -177q15 -15 15 -36t-15 -36z" />
    <glyph glyph-name="uniF53D" unicode="design" vert-adv-y="90" 
d="M692 537l65 -65l-81 -81q-9 -9 0 -18l17 -17q9 -9 18 0l81 81l125 -125l-81 -81q-9 -9 0 -17l17 -18q9 -9 18 0l81 81l63 -63q9 -9 9 -22t-9 -23l-160 -160q-10 -9 -23 -9t-22 9l-323 323l-188 -188q-16 -16 -39 -16t-39 16l-76 77q-16 16 -16 38.5t16 38.5l188 188
l-324 324q-9 9 -9 22t9 22l160 161q10 9 23 9t22 -9l63 -63l-81 -81q-9 -9 0 -18l17 -17q9 -9 18 0l81 81l125 -125l-81 -81q-9 -9 0 -18l17 -17q9 -9 18 0l81 81l65 -66l317 317q16 16 38.5 16t38.5 -16l77 -77q16 -16 16 -38.5t-16 -38.5zM66 216q2 -8 7 -13l130 -130
q5 -5 13 -7q-5 -10 -8 -12l-176 -54q-24 0 -28 4t-4 28l54 176q2 2 12 8z" />
    <glyph glyph-name="uniF53E" unicode="spiderweb" vert-adv-y="90" 
d="M1015 906l-54 -53l63 -373l-63 -373l53 -52q9 -10 9 -23t-9.5 -22t-22.5 -9t-22 9l-52 52l-373 -62l-373 62l-52 -52q-10 -9 -23 -9t-22 9t-9 22t9 23l52 52l-57 341h-37q-13 0 -22.5 9.5t-9.5 22.5t9.5 22.5t22.5 9.5h37l57 341l-53 53q-9 9 -9 22t9 22.5t22 9.5t23 -9
l53 -54l341 57v38q0 13 9.5 22.5t22.5 9.5t22.5 -9.5t9.5 -22.5v-38l341 -57l53 54q9 9 22.5 9t22.5 -9.5t9 -22.5t-9 -22zM576 69l286 48l-73 72l-213 -53v-67zM576 697l117 -23l45 45l-162 41v-63zM697 512l-12 64l-64 -64h76zM621 448l64 -64l12 64h-76zM738 629l23 -117
h63l-41 162zM761 448l-23 -117l45 -46l41 163h-63zM576 200l162 41l-45 45l-117 -24v-62zM576 326l64 13l-64 64v-77zM576 557l64 64l-64 12v-76zM326 512l24 117l-46 45l-40 -162h62zM264 448l41 -163l45 46l-24 117h-62zM349 241l163 -41v62l-117 24zM467 512l-64 64
l-13 -64h77zM390 448l13 -64l64 64h-77zM448 339l64 -13v77zM512 557v76l-64 -12zM512 69v67l-214 53l-72 -72zM181 162l72 72l-53 214h-67zM133 512h67l53 213l-72 73zM512 890l-286 -47l72 -73l214 54v66zM349 719l46 -45l117 23v63zM576 890v-66l213 -54l73 73zM907 798
l-73 -73l54 -213h66zM888 448l-54 -214l73 -72l47 286h-66z" />
    <glyph glyph-name="uniF53F" unicode="fireplace" vert-adv-y="90" 
d="M992 576h-32v-544q0 -13 -9.5 -22.5t-22.5 -9.5h-832q-13 0 -22.5 9.5t-9.5 22.5v544h-32q-13 0 -22.5 9.5t-9.5 22.5v128q0 13 9.5 22.5t22.5 9.5h139l85 128v96q0 13 9.5 22.5t22.5 9.5h448q13 0 22.5 -9.5t9.5 -22.5v-96l85 -128h139q13 0 22.5 -9.5t9.5 -22.5v-128
q0 -13 -9.5 -22.5t-22.5 -9.5zM419 64h166q7 25 7 64q0 21 -18 61t-36 70l-18 29q0 -5 -2 -13t-9 -30.5t-16 -42t-25.5 -41t-35.5 -33.5q-25 -16 -13 -64zM256 576v-512h99q-35 37 -35 80q0 32 18 67t48 61q35 31 51 67.5t14 66t-9.5 54t-16.5 38.5l-9 14q7 -3 17.5 -8
t41.5 -21.5t58.5 -35.5t59.5 -48t53 -60q29 -41 44.5 -90.5t13.5 -88.5q-2 -40 -49 -96h113v512h-512z" />
    <glyph glyph-name="uniF540" unicode="tallglass" vert-adv-y="90" 
d="M704 0h-384q-26 0 -45 19t-19 45v928q0 13 9.5 22.5t22.5 9.5h448q13 0 22.5 -9.5t9.5 -22.5v-928q0 -27 -19 -45.5t-45 -18.5zM394 214l80 -22q13 -3 16 10l22 80q3 13 -10 16l-80 22q-13 3 -16 -10l-22 -80q-1 -5 1.5 -10t8.5 -6zM324 454l65 -65q11 -11 21 0l65 65
q11 10 0 21l-65 65q-10 11 -21 0l-65 -65q-11 -11 0 -21zM704 960h-384v-256h384v256zM704 358l-22 80q-1 6 -6 8.5t-10 1.5l-80 -22q-13 -3 -10 -16l22 -80q1 -6 6 -8.5t10 -1.5l80 22q13 3 10 16z" />
    <glyph glyph-name="uniF541" unicode="grapes" vert-adv-y="90" 
d="M992 832q-4 1 -11 1.5t-27 0t-39.5 -4.5t-44 -16.5t-44.5 -32.5l-129 -130q-10 -9 -24 -9t-24 9.5t-10 23.5t10 24q28 27 66 65q-11 22 -11 69q0 22 9.5 40.5t21 29t22 26t11.5 32.5q0 5 -7 18.5t-15.5 28t-9.5 17.5q40 0 84 -41t44 -87q0 -6 -3 -21q30 10 62.5 15.5
t50.5 5.5h18q14 0 23 -8.5t9 -23.5q0 -16 -9 -24t-23 -8zM512 576q-53 0 -90.5 37.5t-37.5 90.5t37.5 90.5t90.5 37.5t90.5 -37.5t37.5 -90.5t-37.5 -90.5t-90.5 -37.5zM256 512q-53 0 -90.5 37.5t-37.5 90.5t37.5 90.5t90.5 37.5t90.5 -37.5t37.5 -90.5t-37.5 -90.5
t-90.5 -37.5zM320 384q0 -53 -37.5 -90.5t-90.5 -37.5t-90.5 37.5t-37.5 90.5t37.5 90.5t90.5 37.5t90.5 -37.5t37.5 -90.5zM256 128q0 -53 -37.5 -90.5t-90.5 -37.5t-90.5 37.5t-37.5 90.5t37.5 90.5t90.5 37.5t90.5 -37.5t37.5 -90.5zM384 320q53 0 90.5 -37.5t37.5 -90.5
t-37.5 -90.5t-90.5 -37.5t-90.5 37.5t-37.5 90.5t37.5 90.5t90.5 37.5zM640 384q53 0 90.5 -37.5t37.5 -90.5t-37.5 -90.5t-90.5 -37.5t-90.5 37.5t-37.5 90.5t37.5 90.5t90.5 37.5zM448 320q-53 0 -90.5 37.5t-37.5 90.5t37.5 90.5t90.5 37.5t90.5 -37.5t37.5 -90.5
t-37.5 -90.5t-90.5 -37.5zM576 512q0 53 37.5 90.5t90.5 37.5t90.5 -37.5t37.5 -90.5t-37.5 -90.5t-90.5 -37.5t-90.5 37.5t-37.5 90.5z" />
    <glyph glyph-name="uniF542" unicode="bioha&#x7a;ard" vert-adv-y="90" 
d="M912 451q-69 40 -147 33q3 -20 3 -35q0 -86 -51 -153.5t-131 -91.5q24 -96 102 -142q90 -52 272 3q-32 -33 -94.5 -51t-136.5 -13t-131 37q-51 29 -86 75q-35 -46 -87 -75q-56 -32 -130.5 -37t-136.5 13t-95 51q28 -9 56.5 -16t67.5 -11.5t78.5 1.5t69.5 23
q78 46 103 142q-80 24 -131 91.5t-51 153.5q0 15 2 35q-78 7 -147 -33q-48 -28 -79.5 -84t-31.5 -100q-1 169 142 249q55 32 121 36q-35 62 -35 133q0 116 62.5 196t157.5 80q-53 0 -108 -67.5t-55 -153.5q0 -65 36 -120q36 40 85.5 62.5t105 22.5t105 -22.5t85.5 -62.5
q37 55 37 120q0 86 -55.5 153.5t-107.5 67.5q95 0 157 -80t62 -196q0 -71 -34 -133q65 -4 121 -36q72 -40 107 -102.5t35 -156.5q0 51 -31.5 108.5t-80.5 85.5zM704 449l-2 20q-61 -26 -94 -84q-29 -51 -30 -116q56 21 91 70t35 110zM320 449q0 -61 34.5 -110t90.5 -70
q-1 66 -29 116q-34 58 -94 84q-2 -18 -2 -20zM512 641q-88 0 -147 -69q65 -53 146.5 -53t146.5 53q-58 69 -146 69z" />
    <glyph glyph-name="uniF543" unicode="directions" vert-adv-y="90" 
d="M704 0l-384 128l-320 -128v145q34 14 62 36l-46 46q-6 -5 -16 -10v679l320 128l384 -128l320 128v-896zM64 288l64 -32q57 73 64 128h-65q-3 -13 -13.5 -30.5t-28.5 -39.5t-21 -26zM192 576q-57 -73 -64 -128h65q2 13 13 30.5t29 39t21 26.5zM384 704q-70 -9 -126 -52
l46 -47q37 26 80 34v65zM448 704v-65q44 -8 80 -34l46 47q-56 43 -126 52zM889 704q6 6 6 14.5t-6 14.5l-29 30q-6 6 -15 6t-15 -6l-94 -95l-95 95q-6 6 -14.5 6t-15.5 -6l-29 -30q-6 -6 -6 -14.5t6 -14.5l95 -96l-95 -95q-6 -6 -6 -14.5t6 -14.5l29 -30q6 -6 15 -6t15 6
l95 95l94 -95q6 -6 15 -6t15 6l29 30q6 6 6 14.5t-6 14.5l-95 95z" />
    <glyph glyph-name="uniF544" unicode="equali&#x7a;erthree" vert-adv-y="90" 
d="M992 0h-960q-13 0 -22.5 9.5t-9.5 22.5t9.5 22.5t22.5 9.5h960q13 0 22.5 -9.5t9.5 -22.5t-9.5 -22.5t-22.5 -9.5zM928 128h-64q-13 0 -22.5 9.5t-9.5 22.5v64q0 13 9.5 22.5t22.5 9.5h64q13 0 22.5 -9.5t9.5 -22.5v-64q0 -13 -9.5 -22.5t-22.5 -9.5zM928 320h-64
q-13 0 -22.5 9.5t-9.5 22.5v64q0 13 9.5 22.5t22.5 9.5h64q13 0 22.5 -9.5t9.5 -22.5v-64q0 -13 -9.5 -22.5t-22.5 -9.5zM928 512h-64q-13 0 -22.5 9.5t-9.5 22.5v64q0 13 9.5 22.5t22.5 9.5h64q13 0 22.5 -9.5t9.5 -22.5v-64q0 -13 -9.5 -22.5t-22.5 -9.5zM736 128h-64
q-13 0 -22.5 9.5t-9.5 22.5v64q0 13 9.5 22.5t22.5 9.5h64q13 0 22.5 -9.5t9.5 -22.5v-64q0 -13 -9.5 -22.5t-22.5 -9.5zM736 320h-64q-13 0 -22.5 9.5t-9.5 22.5v64q0 13 9.5 22.5t22.5 9.5h64q13 0 22.5 -9.5t9.5 -22.5v-64q0 -13 -9.5 -22.5t-22.5 -9.5zM736 512h-64
q-13 0 -22.5 9.5t-9.5 22.5v64q0 13 9.5 22.5t22.5 9.5h64q13 0 22.5 -9.5t9.5 -22.5v-64q0 -13 -9.5 -22.5t-22.5 -9.5zM736 704h-64q-13 0 -22.5 9.5t-9.5 22.5v64q0 13 9.5 22.5t22.5 9.5h64q13 0 22.5 -9.5t9.5 -22.5v-64q0 -13 -9.5 -22.5t-22.5 -9.5zM736 896h-64
q-13 0 -22.5 9.5t-9.5 22.5v64q0 13 9.5 22.5t22.5 9.5h64q13 0 22.5 -9.5t9.5 -22.5v-64q0 -13 -9.5 -22.5t-22.5 -9.5zM544 128h-64q-13 0 -22.5 9.5t-9.5 22.5v64q0 13 9.5 22.5t22.5 9.5h64q13 0 22.5 -9.5t9.5 -22.5v-64q0 -13 -9.5 -22.5t-22.5 -9.5zM544 320h-64
q-13 0 -22.5 9.5t-9.5 22.5v64q0 13 9.5 22.5t22.5 9.5h64q13 0 22.5 -9.5t9.5 -22.5v-64q0 -13 -9.5 -22.5t-22.5 -9.5zM544 512h-64q-13 0 -22.5 9.5t-9.5 22.5v64q0 13 9.5 22.5t22.5 9.5h64q13 0 22.5 -9.5t9.5 -22.5v-64q0 -13 -9.5 -22.5t-22.5 -9.5zM544 704h-64
q-13 0 -22.5 9.5t-9.5 22.5v64q0 13 9.5 22.5t22.5 9.5h64q13 0 22.5 -9.5t9.5 -22.5v-64q0 -13 -9.5 -22.5t-22.5 -9.5zM352 128h-64q-13 0 -22.5 9.5t-9.5 22.5v64q0 13 9.5 22.5t22.5 9.5h64q13 0 22.5 -9.5t9.5 -22.5v-64q0 -13 -9.5 -22.5t-22.5 -9.5zM352 320h-64
q-13 0 -22.5 9.5t-9.5 22.5v64q0 13 9.5 22.5t22.5 9.5h64q13 0 22.5 -9.5t9.5 -22.5v-64q0 -13 -9.5 -22.5t-22.5 -9.5zM160 128h-64q-13 0 -22.5 9.5t-9.5 22.5v64q0 13 9.5 22.5t22.5 9.5h64q13 0 22.5 -9.5t9.5 -22.5v-64q0 -13 -9.5 -22.5t-22.5 -9.5zM160 320h-64
q-13 0 -22.5 9.5t-9.5 22.5v64q0 13 9.5 22.5t22.5 9.5h64q13 0 22.5 -9.5t9.5 -22.5v-64q0 -13 -9.5 -22.5t-22.5 -9.5zM160 512h-64q-13 0 -22.5 9.5t-9.5 22.5v64q0 13 9.5 22.5t22.5 9.5h64q13 0 22.5 -9.5t9.5 -22.5v-64q0 -13 -9.5 -22.5t-22.5 -9.5zM160 704h-64
q-13 0 -22.5 9.5t-9.5 22.5v64q0 13 9.5 22.5t22.5 9.5h64q13 0 22.5 -9.5t9.5 -22.5v-64q0 -13 -9.5 -22.5t-22.5 -9.5z" />
    <glyph glyph-name="uniF545" unicode="mountains" vert-adv-y="90" 
d="M1001 64h-977q-40 37 -13 62l399 818q16 15 38 15t38 -15l178 -364l34 108q15 15 37.5 15t38.5 -15l239 -562q27 -25 -12 -62zM448 831l-127 -255q0 -7 -1.5 -20t-1 -19t3 -13.5t10 -10t21.5 -1.5q21 1 37.5 11.5t26 22t26 21t37.5 9.5q18 0 34 -13.5t28.5 -33t26 -38.5
t32 -31.5t39.5 -11.5z" />
    <glyph glyph-name="uniF546" unicode="bing" vert-adv-y="90" 
d="M512 0q-139 0 -257 47t-186.5 128t-68.5 177v640q0 13 9.5 22.5t22.5 9.5h128q13 0 22.5 -9.5t9.5 -22.5v-365q141 77 320 77q139 0 257 -47t186.5 -128t68.5 -177t-68.5 -177t-186.5 -128t-257 -47zM512 576q-87 0 -160.5 -30t-116.5 -81.5t-43 -112.5t43 -112.5
t116.5 -81.5t160.5 -30t160.5 30t116.5 81.5t43 112.5t-43 112.5t-116.5 81.5t-160.5 30z" />
    <glyph glyph-name="uniF547" unicode="windowseight" vert-adv-y="90" 
d="M478 102v376h546v-478zM478 921l546 103v-478h-546v375zM410 546h-410v273l410 90v-363zM410 115l-410 90v273h410v-363z" />
    <glyph glyph-name="uniF548" unicode="microsoftoffice" vert-adv-y="90" 
d="M640 0l-576 192l576 -64v768l-384 -128v-512l-192 -64v640l576 192l320 -128v-768z" />
    <glyph glyph-name="uniF549" unicode="salealt" vert-adv-y="90" 
d="M998 0h-64q-14 0 -25 9.5t-14 22.5l-44 224h-384l44 -224q3 -13 -4.5 -22.5t-21.5 -9.5h-64q-13 0 -24 9.5t-14 22.5l-190 959q-3 14 4.5 23t21.5 9h10h566h10q12 0 19 -7.5t7 -18.5q0 -1 1 -2.5t1 -2.5l190 -960q3 -13 -4.5 -22.5t-20.5 -9.5zM576 704q-49 0 -88.5 18.5
t-39.5 45.5q0 26 25.5 45t70.5 19q48 0 60 -4t36 -28q4 -5 9 -14t10 -13.5t13 -4.5q14 0 24.5 9.5t7.5 22.5q-12 49 -36.5 68.5t-91.5 27.5q0 17 -0.5 25.5t-3.5 19t-10 15t-18 4.5t-18 -5t-10 -16t-3.5 -19.5t-0.5 -23.5q-71 -9 -99.5 -34.5t-28.5 -93.5t52.5 -98
t139.5 -30q49 0 88.5 -19t39.5 -45t-25.5 -45t-70.5 -19q-48 0 -60 4t-36 28q-4 4 -9 13t-10 14t-13 5q-14 0 -24.5 -10t-7.5 -22q12 -50 36.5 -69.5t91.5 -26.5q0 -18 0.5 -26t3.5 -18.5t9.5 -15t18 -4.5t18.5 5t10 16t3.5 19t0.5 24q71 8 99.5 33.5t28.5 94.5
q0 67 -52.5 97.5t-139.5 30.5zM173 256l-44 -224q-3 -13 -14 -22.5t-25 -9.5h-64q-13 0 -20.5 9.5t-4.5 22.5l159 803l115 -579h-102zM673 192l-32 -160q-3 -13 -14 -22.5t-24 -9.5h-28l-37 159l7 33h128z" />
    <glyph glyph-name="uniF54A" unicode="purse" vert-adv-y="90" 
d="M960 64q-46 -23 -98 -37t-117 -19.5t-109.5 -6.5t-123.5 -1q-81 0 -123 1.5t-108.5 6.5t-118.5 19t-98 37q-31 16 -47.5 53t-16.5 75q0 53 41.5 205.5t86.5 242.5q12 25 28 41t26 19l10 4q22 0 64 -11v5v6q0 87 34.5 160.5t93 116.5t128.5 43t129 -43t93 -116.5
t34 -160.5v-6v-5q43 11 64 11q19 0 33 -15t31 -49q45 -90 86.5 -242.5t41.5 -205.5q1 -96 -64 -128zM320 576q-27 0 -45.5 -18.5t-18.5 -45t18.5 -45.5t45.5 -19t45.5 19t18.5 45.5t-18.5 45t-45.5 18.5zM512 961q-53 0 -90.5 -70.5t-37.5 -170.5q0 -29 5 -64
q70 -16 123 -16t123 16q5 35 5 64q0 100 -37.5 170.5t-90.5 70.5zM704 576q-27 0 -45.5 -18.5t-18.5 -45t18.5 -45.5t45.5 -19t45.5 19t18.5 45.5t-18.5 45t-45.5 18.5z" />
    <glyph glyph-name="uniF54B" unicode="chickenalt" vert-adv-y="90" 
d="M982 805q-15 0 -41.5 -12.5t-90.5 -47.5l-35 -38q17 -11 17 -24q0 -38 -9.5 -67t-27.5 -63.5t-27 -61.5q-32 -98 -72.5 -134.5t-119.5 -36.5q-80 0 -136 56t-56 136q0 79 36.5 119.5t134.5 72.5q26 9 60.5 26.5t64 27.5t67.5 10l38 42q38 87 38 108q0 17 10.5 29.5
t26 12.5t26 -12.5t10.5 -29.5q0 -7 -15 -27q9 -21 15 -27q9 -9 44 0q33 32 41 32q18 0 30.5 -13.5t12.5 -32.5t-12.5 -32t-29.5 -13zM320 503q0 -102 72.5 -174.5t174.5 -72.5q101 0 153 47t94 172q11 36 41 95q79 -70 124 -151.5t45 -162.5q0 -62 -70 -106t-183.5 -65
t-258.5 -21q-91 0 -162.5 6t-139 23t-112 45t-71.5 74t-27 108q0 73 27.5 144t71 124.5t95 95t101.5 63t89 21.5q64 0 140 -19q-103 -42 -153.5 -100t-50.5 -146z" />
    <glyph glyph-name="uniF54C" unicode="podium" vert-adv-y="90" 
d="M893 696l-61 -120q-2 -6 -14.5 -17t-17.5 -15l-32 -352q27 0 45.5 -18.5t18.5 -45.5v-64q0 -27 -18.5 -45.5t-45.5 -18.5h-512q-26 0 -45 18.5t-19 45.5v64q0 27 19 45.5t45 18.5l-32 352q0 1 -14.5 14.5t-17.5 17.5l-60 120q-10 29 2.5 50.5t40.5 21.5h145v64
q0 53 37.5 90.5t90.5 37.5h64q0 27 19 45.5t45 18.5h64q27 0 45.5 -18.5t18.5 -45.5v-64q0 -27 -18.5 -45.5t-45.5 -18.5h-64q-26 0 -45 18.5t-19 45.5h-64q-26 0 -45 -19t-19 -45v-64h465q28 0 41 -21.5t3 -50.5z" />
    <glyph glyph-name="uniF54D" unicode="findfriends" vert-adv-y="90" 
d="M1005 19q-19 -19 -45.5 -19t-45.5 19l-198 198q-120 -89 -268 -89q-91 0 -174 35.5t-143 95.5t-95.5 143t-35.5 174t35.5 174t95.5 143t143 95.5t174 35.5t174 -35.5t143 -95.5t95.5 -143t35.5 -174q0 -148 -89 -268l198 -198q19 -19 19 -45.5t-19 -45.5zM448 896
q-87 0 -160.5 -43t-116.5 -116.5t-43 -160.5q0 -121 81 -212q56 33 143 46v31q-96 58 -96 240q0 74 54 112.5t138.5 38.5t138 -38.5t53.5 -112.5q0 -190 -96 -243v-28q87 -12 144 -46q80 91 80 212q0 87 -43 160.5t-116.5 116.5t-160.5 43z" />
    <glyph glyph-name="uniF54E" unicode="microphonethree" vert-adv-y="90" 
d="M1000 94l-70 -70q-16 -17 -33.5 -22t-33.5 7l-372 274l-82 -82q-9 -9 -22.5 -9t-23.5 9l-226 226q-9 10 -9 23.5t9 22.5l49 49q-81 23 -133.5 91t-52.5 155q0 106 75 181t181 75q87 0 155 -52.5t91 -133.5l49 49q10 9 23.5 9t22.5 -9l226 -226q9 -10 9 -23t-9 -23
l-81 -81l273 -372q12 -17 7 -34.5t-22 -33.5zM754 638l-180 180l-368 -368l180 -180z" />
    <glyph glyph-name="uniF54F" unicode="workshirt" vert-adv-y="90" 
d="M896 0h-768q-53 0 -90.5 37.5t-37.5 90.5v640q0 53 37.5 90.5t90.5 37.5h64l64 96q18 32 128 32h256q110 0 128 -32l64 -96h64q53 0 90.5 -37.5t37.5 -90.5v-640q0 -53 -37.5 -90.5t-90.5 -37.5zM320 960l-64 -96l96 -96l96 128zM401 723q-25 -19 -49 -19q-32 0 -64 32
l-64 64q-13 13 -22 32h-74q-26 0 -45 -18.5t-19 -45.5v-640q0 -27 18.5 -45.5t45.5 -18.5h192l129 617zM704 960l-128 -64l96 -128l96 96zM960 768q0 27 -19 45.5t-45 18.5h-75q-8 -19 -21 -32l-64 -64q-32 -32 -64 -32q-24 0 -49 19l-49 -43l130 -616h192q26 0 45 18.5
t19 45.5v640z" />
    <glyph glyph-name="uniF550" unicode="donotdisturb" vert-adv-y="90" 
d="M1005 383q19 -19 19 -45.5t-19 -45.5l-273 -273q-19 -19 -45.5 -19t-45.5 19l-292 292q-93 92 -93 169q0 34 9.5 64.5t27 56t29.5 39t30 32.5q32 32 32 96q0 52 -36 90t-92 38q-51 0 -89.5 -38.5t-38.5 -88.5q0 -28 10 -50t22 -33t22 -23t10 -23q0 -32 -18 -48t-46 -16
q-15 0 -36 12.5t-42 35t-35.5 61t-14.5 83.5q0 49 19.5 96.5t55.5 84.5q76 75 182.5 75t182.5 -75z" />
    <glyph glyph-name="uniF551" unicode="addtags" vert-adv-y="90" 
d="M1006 343l-325 -324q-18 -19 -44.5 -19t-44.5 19l-144 144v61q0 40 -28 68t-68 28h-32v32q0 40 -28 68t-68 28h-62l-144 144q-18 18 -18 80v288q0 26 19 45t45 19h288q62 0 80 -19l574 -573q18 -18 18 -44.5t-18 -44.5zM256 896q-53 0 -90.5 -37.5t-37.5 -90.5
t37.5 -90.5t90.5 -37.5t90.5 37.5t37.5 90.5t-37.5 90.5t-90.5 37.5zM64 256h64v64q0 27 18.5 45.5t45 18.5t45.5 -18.5t19 -45.5v-64h64q26 0 45 -18.5t19 -45.5t-19 -45.5t-45 -18.5h-64v-64q0 -26 -19 -45t-45.5 -19t-45 19t-18.5 45v64h-64q-27 0 -45.5 18.5t-18.5 45.5
t18.5 45.5t45.5 18.5z" />
    <glyph glyph-name="uniF552" unicode="removetags" vert-adv-y="90" 
d="M1006 343l-325 -325q-18 -18 -44.5 -18t-44.5 18l-144 144v62q0 40 -28 68t-68 28h-62l-272 272q-18 18 -18 79v288q0 27 19 45.5t45 18.5h288q62 0 80 -18l574 -573q18 -19 18 -45t-18 -44zM256 895q-53 0 -90.5 -37.5t-37.5 -90.5t37.5 -90.5t90.5 -37.5t90.5 37.5
t37.5 90.5t-37.5 90.5t-90.5 37.5zM64 256h256q26 0 45 -19t19 -45.5t-19 -45t-45 -18.5h-256q-27 0 -45.5 18.5t-18.5 45t18.5 45.5t45.5 19z" />
    <glyph glyph-name="uniF553" unicode="carbattery" vert-adv-y="90" 
d="M960 128h-896q-27 0 -45.5 18.5t-18.5 45.5v0v448q0 27 18.5 45.5t45.5 18.5h64h192h384h192h64q27 0 45.5 -18.5t18.5 -45.5v-448q0 -27 -18.5 -45.5t-45.5 -18.5zM288 448h-128q-13 0 -22.5 -9.5t-9.5 -22.5t9.5 -22.5t22.5 -9.5h128q13 0 22.5 9.5t9.5 22.5t-9.5 22.5
t-22.5 9.5zM864 448h-32v32q0 13 -9.5 22.5t-22.5 9.5t-22.5 -9.5t-9.5 -22.5v-32h-32q-13 0 -22.5 -9.5t-9.5 -22.5t9.5 -22.5t22.5 -9.5h32v-32q0 -13 9.5 -22.5t22.5 -9.5t22.5 9.5t9.5 22.5v32h32q13 0 22.5 9.5t9.5 22.5t-9.5 22.5t-22.5 9.5zM704 832q0 27 18.5 45.5
t45.5 18.5h64q26 0 45 -18.5t19 -45.5v-64h-192v64zM128 832q0 27 18.5 45.5t45.5 18.5h64q26 0 45 -18.5t19 -45.5v-64h-192v64z" />
    <glyph glyph-name="uniF554" unicode="debug" vert-adv-y="90" 
d="M1016 49l-41 -41q-9 -8 -21 -8t-20 8l-151 151q-53 -31 -111 -31q-93 0 -158.5 65.5t-65.5 158.5q0 65 35 119.5t93 81.5v86h-32q-13 0 -22.5 9.5t-9.5 22.5t9.5 22.5t22.5 9.5h64q13 0 22.5 -9.5t9.5 -22.5v-99q23 3 32 3q91 0 157 -64h3v128h-32q-13 0 -22.5 9.5
t-9.5 22.5t9.5 22.5t22.5 9.5h64q13 0 22.5 -9.5t9.5 -22.5v-160h32q13 0 22.5 -9.5t9.5 -22.5t-9.5 -22.5t-22.5 -9.5h-54q22 -47 22 -95q0 -59 -31 -112l151 -150q8 -9 8 -20.5t-8 -20.5zM672 511q-66 0 -113 -46.5t-47 -113t47 -113t113 -46.5t113 46.5t47 113t-47 113
t-113 46.5zM928 767h-128q-13 0 -22.5 9.5t-9.5 22.5v192q0 13 9.5 22.5t22.5 9.5h128q13 0 22.5 -9.5t9.5 -22.5v-192q0 -13 -9.5 -22.5t-22.5 -9.5zM896 927q0 13 -9.5 22.5t-22.5 9.5t-22.5 -9.5t-9.5 -22.5v-64q0 -13 9.5 -22.5t22.5 -9.5t22.5 9.5t9.5 22.5v64z
M672 767h-128q-13 0 -22.5 9.5t-9.5 22.5t9.5 22.5t22.5 9.5h32v128h-32q-13 0 -22.5 9.5t-9.5 22.5t9.5 22.5t22.5 9.5h64q13 0 22.5 -9.5t9.5 -22.5v-160h32q13 0 22.5 -9.5t9.5 -22.5t-9.5 -22.5t-22.5 -9.5zM416 447h-128q-13 0 -22.5 9.5t-9.5 22.5v192q0 13 9.5 22.5
t22.5 9.5h128q13 0 22.5 -9.5t9.5 -22.5v-192q0 -13 -9.5 -22.5t-22.5 -9.5zM384 607q0 13 -9.5 22.5t-22.5 9.5t-22.5 -9.5t-9.5 -22.5v-64q0 -13 9.5 -22.5t22.5 -9.5t22.5 9.5t9.5 22.5v64zM416 767h-128q-13 0 -22.5 9.5t-9.5 22.5t9.5 22.5t22.5 9.5h32v128h-32
q-13 0 -22.5 9.5t-9.5 22.5t9.5 22.5t22.5 9.5h64q13 0 22.5 -9.5t9.5 -22.5v-160h32q13 0 22.5 -9.5t9.5 -22.5t-9.5 -22.5t-22.5 -9.5zM160 127h-128q-13 0 -22.5 9.5t-9.5 22.5v192q0 13 9.5 22.5t22.5 9.5h128q13 0 22.5 -9.5t9.5 -22.5v-192q0 -13 -9.5 -22.5
t-22.5 -9.5zM128 287q0 13 -9.5 22.5t-22.5 9.5t-22.5 -9.5t-9.5 -22.5v-64q0 -13 9.5 -22.5t22.5 -9.5t22.5 9.5t9.5 22.5v64zM160 447h-128q-13 0 -22.5 9.5t-9.5 22.5t9.5 22.5t22.5 9.5h32v128h-32q-13 0 -22.5 9.5t-9.5 22.5t9.5 22.5t22.5 9.5h64q13 0 22.5 -9.5
t9.5 -22.5v-160h32q13 0 22.5 -9.5t9.5 -22.5t-9.5 -22.5t-22.5 -9.5zM160 767h-128q-13 0 -22.5 9.5t-9.5 22.5v192q0 13 9.5 22.5t22.5 9.5h128q13 0 22.5 -9.5t9.5 -22.5v-192q0 -13 -9.5 -22.5t-22.5 -9.5zM128 927q0 13 -9.5 22.5t-22.5 9.5t-22.5 -9.5t-9.5 -22.5v-64
q0 -13 9.5 -22.5t22.5 -9.5t22.5 9.5t9.5 22.5v64zM288 319q-13 0 -22.5 9.5t-9.5 22.5t9.5 22.5t22.5 9.5h64q13 0 22.5 -9.5t9.5 -22.5v-160h32q13 0 22.5 -9.5t9.5 -22.5t-9.5 -22.5t-22.5 -9.5h-128q-13 0 -22.5 9.5t-9.5 22.5t9.5 22.5t22.5 9.5h32v128h-32z" />
    <glyph glyph-name="uniF555" unicode="trojan" vert-adv-y="90" 
d="M1024 478v-126q0 -13 -9.5 -22.5t-23 -9.5t-22.5 9.5t-9 22.5v160q0 26 -19 45t-45 19v-32q0 -31 -18 -55.5t-46 -34.5v-198h128q26 0 45 -19t19 -45.5t-19 -45t-45 -18.5h-64q0 -53 -37.5 -90.5t-90.5 -37.5t-90.5 37.5t-37.5 90.5h-256q0 -53 -37.5 -90.5t-90.5 -37.5
t-90.5 37.5t-37.5 90.5h-64q-27 0 -45.5 18.5t-18.5 45.5t18.5 45.5t45.5 18.5h192v256q0 23 -0.5 37t-4.5 40t-11 43t-22 35t-36 27l-21 -10q-52 -66 -132 -33q-26 12 -28 44.5t12 65t32 55.5l116 164q22 29 42.5 36.5t52.5 7.5v0h1q59 0 118 -51t96 -122.5t40 -135.5
q30 -11 60 -11h229q31 0 55.5 -18t34.5 -47q1 0 3 0.5t3 0.5q36 0 66.5 -19t46.5 -51q15 -10 15 -26v-32v-14v-12.5v-7.5zM256 880q0 6 -4.5 11t-11.5 5h-31q-7 0 -11.5 -5t-4.5 -11v-32q0 -7 4.5 -11.5t11.5 -4.5h31q7 0 11.5 4.5t4.5 11.5v32zM255.5 192q-26.5 0 -45 -19
t-18.5 -45.5t18.5 -45t45 -18.5t45.5 19t19 45t-19 45t-45.5 19zM384 448h-64v-192h64v192zM640 448h-192v-192h192v192zM768 448h-64v-192h64v192zM767.5 192q-26.5 0 -45 -19t-18.5 -45.5t18.5 -45t45 -18.5t45.5 19t19 45t-19 45t-45.5 19z" />
    <glyph glyph-name="uniF556" unicode="molecule" vert-adv-y="90" 
d="M800 0q-93 0 -158.5 65.5t-65.5 158.5q0 97 72 163l-59 137q-37 -12 -77 -12t-77 12l-59 -137q72 -67 72 -163q0 -93 -65.5 -158.5t-158.5 -65.5t-158.5 65.5t-65.5 158.5t65.5 158.5t158.5 65.5q23 0 48 -5l61 142q-77 75 -77 183q0 106 75 181t181 75t181 -75t75 -181
q0 -107 -77 -183l61 -142q25 5 48 5q93 0 158.5 -65.5t65.5 -158.5t-65.5 -158.5t-158.5 -65.5zM191.5 384q-26.5 0 -45 -19t-18.5 -45t18.5 -45t45 -19t45.5 18.5t19 45.5t-19 45.5t-45.5 18.5zM447.5 896q-26.5 0 -45 -18.5t-18.5 -45.5t18.5 -45.5t45 -18.5t45.5 18.5
t19 45.5t-19 45.5t-45.5 18.5zM767.5 384q-26.5 0 -45 -18.5t-18.5 -45t18.5 -45.5t45 -19t45.5 18.5t19 45.5t-19 45.5t-45.5 18.5z" />
    <glyph glyph-name="uniF557" unicode="safetygoggles" vert-adv-y="90" 
d="M800 256q-224 0 -224 160q-2 8 -4.5 13.5t-7.5 9t-8 5.5t-10.5 3t-10 1h-12h-11.5h-11.5h-12.5t-10 -1t-10 -3t-8 -5.5t-7.5 -9t-4.5 -13.5q0 -160 -224 -160t-224 160v224q0 27 18.5 45.5t45.5 18.5h896q27 0 45.5 -18.5t18.5 -45.5v-224q0 -160 -224 -160zM960 640
h-896v-224q0 -26 8.5 -44t21.5 -28t35.5 -15.5t43 -7t51.5 -1.5t51 1.5t42.5 7t36 15.5t22 28t8.5 44q16 96 128 96t128 -96q0 -26 8.5 -44t21.5 -28t35.5 -15.5t43 -7t51.5 -1.5t51 1.5t42.5 7t36 15.5t22 28t8.5 44v224z" />
    <glyph glyph-name="uniF558" unicode="leather" vert-adv-y="90" 
d="M768 128q-88 0 -140 -38.5t-52 -89.5h-128q0 51 -52 89.5t-140 38.5q-25 0 -65.5 -21t-62.5 -43l-128 128q71 37 131.5 130t60.5 190q0 147 -128 256l64 128q7 -7 19.5 -17.5t46.5 -28.5t62 -18q59 0 104 30t66.5 73t21.5 89h128q0 -46 21.5 -89t66.5 -73t104 -30
q28 0 60 16t50 32l18 16l64 -128q-128 -109 -128 -256q0 -97 60.5 -190t131.5 -130l-128 -128q-26 25 -64 44.5t-64 19.5z" />
    <glyph glyph-name="uniF559" unicode="teddybear" vert-adv-y="90" 
d="M987 678q-25 -25 -63 -33q36 -79 36 -165q0 -113 -60 -209t-163 -151.5t-225 -55.5t-225 55.5t-163 151.5t-60 209q0 86 36 165q-38 8 -63 33q-42 42 -36 108t56.5 117t116.5 57t109 -37q27 -27 34 -68q93 41 195 41t195 -41q8 41 34 68q43 43 109 37t116.5 -57
t56.5 -117t-36 -108zM233 874q-25 26 -64.5 22t-70 -34.5t-34 -70t21.5 -64.5q19 -20 49 -22q48 69 120 116q-1 33 -22 53zM319.5 640q-26.5 0 -45 -18.5t-18.5 -45t18.5 -45.5t45 -19t45.5 19t19 45.5t-19 45t-45.5 18.5zM704.5 640q-26.5 0 -45.5 -18.5t-19 -45t19 -45.5
t45.5 -19t45 19t18.5 45.5t-18.5 45t-45 18.5zM512 448q-106 0 -181 -47t-75 -113t75 -113t181 -47t181 47t75 113t-75 113t-181 47zM925.5 861.5q-30.5 30.5 -70 34t-64.5 -21.5q-21 -21 -22 -53q72 -47 120 -116q30 2 49 22q25 25 21.5 64.5t-34 70zM512 256q-32 0 -80 21
t-48 43q0 48 16 56t112 8t112 -8t16 -56q0 -23 -48 -43.5t-80 -20.5z" />
    <glyph glyph-name="uniF55A" unicode="stroller" vert-adv-y="90" 
d="M896 512h-212l-180 -179l118 -141h99q17 29 46.5 46.5t64.5 17.5q53 0 90.5 -37.5t37.5 -90.5t-37.5 -90.5t-90.5 -37.5t-90.5 37.5t-37.5 90.5h-95h-1q-18 0 -27 16l-121 144l-95 -95q19 -31 19 -65q0 -53 -37.5 -90.5t-90.5 -37.5t-90.5 37.5t-37.5 90.5t37.5 90.5
t90.5 37.5q34 0 65 -18l99 99l-146 175h-82l-33 117l-150 151q-9 9 -9 21.5t9 21.5t21.5 9t21.5 -9l119 -119h405l-64 320q164 0 313 -78t199 -178zM831.5 64q26.5 0 45.5 19t19 45.5t-19 45t-45.5 18.5t-45 -18.5t-18.5 -45t18.5 -45.5t45 -19zM255.5 192
q-26.5 0 -45 -18.5t-18.5 -45t18.5 -45.5t45 -19t45.5 19t19 45.5t-19 45t-45.5 18.5zM355 512l109 -131l132 131h-241z" />
    <glyph glyph-name="uniF55B" unicode="circleplay" vert-adv-y="90" 
d="M512 0q-104 0 -199 40.5t-163.5 109t-109 163.5t-40.5 199t40.5 199t109 163.5t163.5 109t199 40.5t199 -40.5t163.5 -109t109 -163.5t40.5 -199t-40.5 -199t-109 -163.5t-163.5 -109t-199 -40.5zM760 531l-409 232q-12 13 -31 -7v-488q18 -20 31 -7l409 232q8 8 8 19
t-8 19z" />
    <glyph glyph-name="uniF55C" unicode="circlestop" vert-adv-y="90" 
d="M512 0q-104 0 -199 40.5t-163.5 109t-109 163.5t-40.5 199t40.5 199t109 163.5t163.5 109t199 40.5t199 -40.5t163.5 -109t109 -163.5t40.5 -199t-40.5 -199t-109 -163.5t-163.5 -109t-199 -40.5zM768 704q0 26 -18.5 45t-45.5 19h-384q-26 0 -45 -19t-19 -45v-384
q0 -27 19 -45.5t45 -18.5h384q27 0 45.5 18.5t18.5 45.5v384z" />
    <glyph glyph-name="uniF55D" unicode="circlepause" vert-adv-y="90" 
d="M512 0q-104 0 -199 40.5t-163.5 109t-109 163.5t-40.5 199t40.5 199t109 163.5t163.5 109t199 40.5t199 -40.5t163.5 -109t109 -163.5t40.5 -199t-40.5 -199t-109 -163.5t-163.5 -109t-199 -40.5zM448 704q0 26 -18.5 45t-45.5 19h-64q-26 0 -45 -19t-19 -45v-384
q0 -27 19 -45.5t45 -18.5h64q27 0 45.5 18.5t18.5 45.5v384zM768 704q0 26 -18.5 45t-45.5 19h-64q-26 0 -45 -19t-19 -45v-384q0 -27 19 -45.5t45 -18.5h64q27 0 45.5 18.5t18.5 45.5v384z" />
    <glyph glyph-name="uniF55E" unicode="circlerecord" vert-adv-y="90" 
d="M512 0q-104 0 -199 40.5t-163.5 109t-109 163.5t-40.5 199t40.5 199t109 163.5t163.5 109t199 40.5t199 -40.5t163.5 -109t109 -163.5t40.5 -199t-40.5 -199t-109 -163.5t-163.5 -109t-199 -40.5zM512 768q-106 0 -181 -75t-75 -181t75 -181t181 -75t181 75t75 181
t-75 181t-181 75z" />
    <glyph glyph-name="uniF55F" unicode="circleforward" vert-adv-y="90" 
d="M512 0q-104 0 -199 40.5t-163.5 109t-109 163.5t-40.5 199t40.5 199t109 163.5t163.5 109t199 40.5t199 -40.5t163.5 -109t109 -163.5t40.5 -199t-40.5 -199t-109 -163.5t-163.5 -109t-199 -40.5zM505 531l-218 231q-13 14 -31 -6v-488q18 -20 31 -7l218 232q7 7 7 18.5
t-7 19.5zM825 531l-218 231q-12 14 -31 -6v-488q19 -20 31 -7l218 232q7 7 7 18.5t-7 19.5z" />
    <glyph glyph-name="uniF560" unicode="circlebackward" vert-adv-y="90" 
d="M512 0q-104 0 -199 40.5t-163.5 109t-109 163.5t-40.5 199t40.5 199t109 163.5t163.5 109t199 40.5t199 -40.5t163.5 -109t109 -163.5t40.5 -199t-40.5 -199t-109 -163.5t-163.5 -109t-199 -40.5zM448 756q-18 20 -31 7l-217 -232q-8 -8 -8 -19t8 -19l217 -232
q13 -13 31 7v488zM768 756q-18 20 -31 7l-217 -232q-8 -8 -8 -19t8 -19l217 -232q13 -13 31 7v488z" />
    <glyph glyph-name="uniF561" unicode="circlenext" vert-adv-y="90" 
d="M512 0q-104 0 -199 40.5t-163.5 109t-109 163.5t-40.5 199t40.5 199t109 163.5t163.5 109t199 40.5t199 -40.5t163.5 -109t109 -163.5t40.5 -199t-40.5 -199t-109 -163.5t-163.5 -109t-199 -40.5zM448 704q0 26 -18.5 45t-45.5 19h-64q-27 0 -45.5 -19t-18.5 -45v-384
q0 -27 18.5 -45.5t45.5 -18.5h64q27 0 45.5 18.5t18.5 45.5v384zM825 531l-218 231q-13 14 -31 -6v-488q18 -20 31 -7l218 232q7 7 7 18.5t-7 19.5z" />
    <glyph glyph-name="uniF562" unicode="circleprevious" vert-adv-y="90" 
d="M512 0q-104 0 -199 40.5t-163.5 109t-109 163.5t-40.5 199t40.5 199t109 163.5t163.5 109t199 40.5t199 -40.5t163.5 -109t109 -163.5t40.5 -199t-40.5 -199t-109 -163.5t-163.5 -109t-199 -40.5zM448 756q-18 20 -31 6l-218 -231q-7 -8 -7 -19.5t7 -18.5l218 -232
q13 -13 31 7v488zM768 704q0 26 -18.5 45t-45.5 19h-64q-26 0 -45 -19t-19 -45v-384q0 -27 19 -45.5t45 -18.5h64q27 0 45.5 18.5t18.5 45.5v384z" />
    <glyph glyph-name="uniF563" unicode="circleplayempty" vert-adv-y="90" 
d="M512 0q-104 0 -199 40.5t-163.5 109t-109 163.5t-40.5 199t40.5 199t109 163.5t163.5 109t199 40.5t199 -40.5t163.5 -109t109 -163.5t40.5 -199t-40.5 -199t-109 -163.5t-163.5 -109t-199 -40.5zM512 960q-91 0 -174 -35.5t-143 -95.5t-95.5 -143t-35.5 -174t35.5 -174
t95.5 -143t143 -95.5t174 -35.5t174 35.5t143 95.5t95.5 143t35.5 174t-35.5 174t-95.5 143t-143 95.5t-174 35.5zM351 261q-13 -13 -31 7v488q19 20 31 7l409 -232q8 -8 8 -19t-8 -19z" />
    <glyph glyph-name="uniF564" unicode="circlestopempty" vert-adv-y="90" 
d="M512 0q-104 0 -199 40.5t-163.5 109t-109 163.5t-40.5 199t40.5 199t109 163.5t163.5 109t199 40.5t199 -40.5t163.5 -109t109 -163.5t40.5 -199t-40.5 -199t-109 -163.5t-163.5 -109t-199 -40.5zM512 960q-91 0 -174 -35.5t-143 -95.5t-95.5 -143t-35.5 -174t35.5 -174
t95.5 -143t143 -95.5t174 -35.5t174 35.5t143 95.5t95.5 143t35.5 174t-35.5 174t-95.5 143t-143 95.5t-174 35.5zM704 256h-384q-26 0 -45 18.5t-19 45.5v384q0 26 19 45t45 19h384q27 0 45.5 -19t18.5 -45v-384q0 -27 -18.5 -45.5t-45.5 -18.5z" />
    </font>
</defs>
</svg>
